<?xml version="1.0" standalone="no"?>
<!DOCTYPE svg PUBLIC "-//W3C//DTD SVG 1.1//EN" "http://www.w3.org/Graphics/SVG/1.1/DTD/svg11.dtd" >
<svg xmlns="http://www.w3.org/2000/svg" xmlns:xlink="http://www.w3.org/1999/xlink" version="1.1">
<metadata>
Created by FontForge 20170731 at Fri Apr 13 16:56:55 2007
 By Aleksey,,,
Copyright (c) 2002, 2005 Parachute :, www.parachute.gr.  All rights reserved.
</metadata>
<defs>
<font id="PFDinDisplayPro-Medium" horiz-adv-x="1818" >
  <font-face 
    font-family="PF DinDisplay Pro Medium"
    font-weight="500"
    font-stretch="normal"
    units-per-em="1000"
    panose-1="2 0 5 6 0 0 0 2 0 4"
    ascent="750"
    descent="-250"
    x-height="495"
    cap-height="689"
    bbox="-179 -298 1760 940"
    underline-thickness="50"
    underline-position="-150"
    unicode-range="U+0020-FB05"
  />
<missing-glyph horiz-adv-x="447" 
d="M0 700h447v-700h-447v700zM348 65l-125 226l-124 -226h249zM348 635h-250l125 -225zM65 129l121 221l-121 222v-443zM382 129v442l-121 -221z" />
    <glyph glyph-name="fj" unicode="fj" horiz-adv-x="507" 
d="M448 -52q0 -78 -41 -114.5t-110 -36.5h-53v94h36q37 0 50 17t13 56v442h-156v-406h-104v406h-59v90h59v81q0 34 11 59.5t29.5 42.5t43.5 25t54 8h77v-91h-62q-29 0 -39 -16t-10 -40v-69h261v-548zM335 638q0 26 17.5 43t42.5 17q26 0 43.5 -17t17.5 -43t-17.5 -43.5
t-43.5 -17.5q-25 0 -42.5 17.5t-17.5 43.5z" />
    <glyph glyph-name="ffj" unicode="ffj" horiz-adv-x="766" 
d="M707 -52q0 -78 -41 -114.5t-111 -36.5h-52v94h35q38 0 50.5 17t12.5 56v442h-155v-406h-104v406h-155v-406h-104v406h-59v90h59v60q0 34 11 59.5t29.5 42.5t43.5 25t54 8h75v-90h-60q-29 0 -39 -16.5t-10 -40.5v-48h155v80q0 34 10.5 59.5t29.5 42.5t44 25t54 8h77v-90
h-63q-28 0 -38 -16.5t-10 -40.5v-68h261v-548zM593 637q0 25 17.5 42.5t43.5 17.5q25 0 42.5 -17.5t17.5 -42.5q0 -26 -17.5 -44t-42.5 -18q-26 0 -43.5 18t-17.5 44z" />
    <glyph glyph-name="ff" unicode="ff" horiz-adv-x="569" 
d="M568 406h-122v-406h-103v406h-156v-406h-104v406h-59v90h59v63q0 34 11 59.5t29.5 42t43.5 25t54 8.5h88v-91h-73q-29 0 -39 -16t-10 -40v-51h156v82q0 34 10.5 59.5t29.5 42.5t43.5 25t53.5 8h88v-90h-73q-29 0 -39 -16.5t-10 -40.5v-70h122v-90z" />
    <glyph glyph-name="fi" unicode="fi" horiz-adv-x="507" 
d="M343 0v406h-156v-406h-104v406h-59v90h59v80q0 34 11 59.5t29.5 42t43.5 25t54 8.5h78v-91h-63q-29 0 -39 -16t-10 -40v-68h261v-496h-105zM335 636q0 26 17.5 43.5t42.5 17.5q26 0 43.5 -17.5t17.5 -43.5t-17.5 -43.5t-43.5 -17.5q-25 0 -42.5 17.5t-17.5 43.5z" />
    <glyph glyph-name="fl" unicode="fl" horiz-adv-x="550" 
d="M295 406h-106v-406h-104v406h-58v90h58v77q0 44 14.5 74.5t39 50t57 28.5t68.5 9q26 0 71 -4t114 -22v-564q0 -36 15.5 -45t56.5 -9l2 -92q-15 -3 -29 -4t-26 -1q-40 0 -64 9.5t-37.5 27t-18 42t-4.5 55.5v504q-19 5 -36.5 7.5t-39.5 2.5q-37 0 -58 -18t-21 -56v-72h106
v-90z" />
    <glyph glyph-name="ffi" unicode="ffi" horiz-adv-x="766" 
d="M601 0v406h-155v-406h-104v406h-155v-406h-104v406h-59v90h59v60q0 34 11 59.5t29.5 42.5t43.5 25t54 8h75v-90h-60q-29 0 -39 -16.5t-10 -40.5v-48h155v80q0 34 10.5 59.5t29.5 42t44 25t54 8.5h77v-91h-63q-28 0 -38 -16t-10 -40v-68h261v-496h-106zM593 636
q0 26 17.5 43t43.5 17q25 0 42.5 -17t17.5 -43t-17.5 -43.5t-42.5 -17.5q-26 0 -43.5 17.5t-17.5 43.5z" />
    <glyph glyph-name="ffl" unicode="ffl" horiz-adv-x="806" 
d="M551 406h-106v-406h-104v406h-154v-406h-104v406h-59v90h59v73q0 34 11 59.5t29.5 42t43.5 25t54 8.5h79v-91h-64q-29 0 -39 -16t-10 -40v-61h154v76q0 44 14 75t38.5 50.5t57.5 28.5t71 9q26 0 71.5 -4.5t111.5 -22.5v-563q0 -36 15.5 -45t56.5 -9l2 -92q-15 -3 -29 -4
t-26 -1q-40 0 -64 9.5t-37.5 27t-18 42t-4.5 55.5v504q-18 5 -36 7t-39 2q-80 0 -80 -76v-69h106v-90z" />
    <glyph glyph-name="ft" unicode="ft" horiz-adv-x="614" 
d="M187 406v-406h-104v406h-59v90h59v85q0 34 11 59.5t29.5 42.5t43.5 25t54 8h75v-91h-60q-29 0 -39 -16t-10 -40v-73h159l21 118h81v-118h129v-90h-129v-225q0 -26 5 -43t14 -27t23 -13.5t32 -3.5q17 0 36 2t41 5l14 -89q-30 -11 -62.5 -14t-52.5 -3q-44 0 -73.5 10
t-47.5 29.5t-26 49.5t-8 70v252h-156z" />
    <glyph glyph-name=".notdef" horiz-adv-x="447" 
d="M0 700h447v-700h-447v700zM348 65l-125 226l-124 -226h249zM348 635h-250l125 -225zM65 129l121 221l-121 222v-443zM382 129v442l-121 -221z" />
    <glyph glyph-name=".null" horiz-adv-x="0" 
 />
    <glyph glyph-name="nonmarkingreturn" horiz-adv-x="333" 
 />
    <glyph glyph-name="space" unicode=" " horiz-adv-x="247" 
 />
    <glyph glyph-name="exclam" unicode="!" horiz-adv-x="251" 
d="M79 198l-7 498h107l-7 -498h-93zM125 -6q-31 0 -49.5 20.5t-18.5 50.5q0 26 18.5 46.5t48.5 20.5q32 0 51.5 -20.5t19.5 -46.5q0 -29 -18.5 -50t-51.5 -21z" />
    <glyph glyph-name="quotedbl" unicode="&#x22;" horiz-adv-x="326" 
d="M186 696h85v-200h-85v200zM54 696h86v-200h-86v200z" />
    <glyph glyph-name="numbersign" unicode="#" horiz-adv-x="539" 
d="M396 288h91v-79h-102l-29 -209h-89l29 209h-97l-28 -209h-91l30 209h-86v79h98l17 123h-88v78h99l29 206h86l-27 -206h98l29 206h87l-29 -206h91v-78h-102zM210 288h97l18 123h-98z" />
    <glyph glyph-name="dollar" unicode="$" horiz-adv-x="517" 
d="M296 2q0 -7 1 -12v-90h-72v102q-56 4 -105 24.5t-97 62.5l60 81q43 -34 87.5 -52t91.5 -18q63 0 93.5 27t30.5 69q0 30 -15 48t-38 29.5t-49.5 17.5t-49.5 11q-33 7 -66.5 19.5t-60.5 34t-43.5 54.5t-16.5 81q0 39 13.5 72t37.5 58.5t56.5 42t70.5 21.5v87h72
q-1 -21 -1 -42v-42q47 -3 91 -17.5t90 -45.5l-54 -89q-40 27 -78.5 39.5t-78.5 12.5q-22 0 -42 -6t-35.5 -18.5t-24.5 -31t-9 -42.5t13 -39.5t32.5 -26t42.5 -17t43 -11.5q33 -8 69.5 -19t67 -32.5t50.5 -57t20 -90.5q0 -42 -14.5 -76.5t-40.5 -59.5t-62 -40t-80 -19z" />
    <glyph glyph-name="percent" unicode="%" horiz-adv-x="826" 
d="M775 112q0 -28 -12 -49.5t-32 -36.5t-46 -22.5t-53 -7.5q-28 0 -54 7.5t-46 22.5t-32 36.5t-12 49.5v189q0 28 12.5 49.5t32.5 36.5t46 23t53 8t52.5 -8t46 -23t32.5 -36.5t12 -49.5v-189zM693 289q0 15 -5.5 25t-14.5 16.5t-20 9.5t-21 3t-20.5 -3t-19.5 -9.5
t-14.5 -16.5t-5.5 -25v-167q0 -14 5.5 -24t14.5 -16t19.5 -9t20.5 -3t21 3t20 9t14.5 16t5.5 24v167zM337 387q0 -28 -12 -49.5t-32 -36.5t-46 -22.5t-53 -7.5q-28 0 -54 7.5t-46 22.5t-32 36.5t-12 49.5v189q0 28 12 49.5t32.5 36.5t46.5 23t53 8t52.5 -8t46 -23
t32.5 -36.5t12 -49.5v-189zM255 564q0 15 -5.5 25t-14.5 16.5t-20 9.5t-21 3t-20.5 -3t-19.5 -9.5t-14.5 -16.5t-5.5 -25v-167q0 -14 5.5 -24t14.5 -16t19.5 -9t20.5 -3t21 3t20 9t14.5 16t5.5 24v167zM241 -17h-78l425 730h79z" />
    <glyph glyph-name="ampersand" unicode="&#x26;" horiz-adv-x="827" 
d="M761 432q0 -91 -36 -172t-97 -143q35 -32 72 -57.5t79 -42.5l-41 -76q-22 9 -46.5 22.5t-48.5 29.5t-46 33.5t-40 35.5q-38 -31 -92 -50.5t-108 -19.5q-45 0 -85 13t-69.5 38.5t-47 62.5t-17.5 85q0 35 12 65.5t32.5 56.5t49 48.5t61.5 41.5q-23 33 -34 62t-11 61
t10 59.5t28.5 48t45.5 32t62 11.5q33 0 60.5 -11t48 -29.5t32 -44t11.5 -54.5t-9.5 -53t-26 -44t-39 -37.5t-48.5 -33.5q32 -46 69 -95.5t78 -97.5q48 51 76.5 116.5t28.5 137.5q0 60 -18 113.5t-53 94t-86.5 64t-117.5 23.5q-60 0 -108.5 -17.5t-82.5 -47.5t-52.5 -70
t-18.5 -84q0 -32 9 -65.5t32 -69.5l-73 -44q-30 44 -42.5 88t-12.5 86q0 60 24 116t69 98.5t109 68t143 25.5q89 0 157 -30t114.5 -81.5t70 -120t23.5 -146.5zM455 538q0 24 -17.5 40t-43.5 16q-28 0 -40.5 -21t-12.5 -43q0 -20 10 -40t26 -44q35 19 56.5 39.5t21.5 52.5z
M500 123q-21 23 -43 50t-42.5 54.5t-38.5 54t-32 48.5q-24 -13 -45 -27.5t-36.5 -31.5t-25 -36.5t-9.5 -41.5q0 -60 35 -89.5t86 -29.5q36 0 74.5 12t76.5 37z" />
    <glyph glyph-name="quotesingle" unicode="'" horiz-adv-x="259" 
d="M89 696h85v-200h-85v200z" />
    <glyph glyph-name="parenleft" unicode="(" horiz-adv-x="317" 
d="M248 -127q-39 42 -74 91t-61.5 104t-42 114.5t-15.5 122.5q0 64 15.5 124t41.5 114t60.5 102.5t72.5 90.5l59 -37q-66 -87 -102.5 -189.5t-36.5 -199.5q0 -105 38 -208t101 -187z" />
    <glyph glyph-name="parenright" unicode=")" horiz-adv-x="317" 
d="M280 305q0 -63 -16 -122.5t-42.5 -114.5t-61.5 -104t-74 -91l-55 42q63 84 100.5 187t37.5 208q0 97 -36 199.5t-102 189.5l58 37q39 -42 73.5 -90.5t60.5 -102.5t41.5 -114t15.5 -124z" />
    <glyph glyph-name="asterisk" unicode="*" horiz-adv-x="395" 
d="M328 429q-5 -4 -14 -11t-19 -14.5t-19.5 -14t-14.5 -10.5l-61 104l-63 -104q-5 3 -14 10t-19.5 14.5t-20 14.5t-13.5 11l79 90l-113 29l23 77l111 -47l-11 120h83l-12 -120q9 4 24.5 10t31.5 13t31 13.5t24 10.5l23 -78l-114 -28z" />
    <glyph glyph-name="plus" unicode="+" horiz-adv-x="517" 
d="M300 255v-190h-84v190h-190v81h190v188h84v-188h190v-81h-190z" />
    <glyph glyph-name="comma" unicode="," horiz-adv-x="271" 
d="M61 -95q24 18 39.5 40.5t17.5 49.5q-22 3 -36.5 21.5t-14.5 44.5q0 27 20 47t50 20q20 0 34.5 -7.5t24.5 -20t14.5 -29t4.5 -33.5q0 -29 -9 -56.5t-25 -51.5t-37 -43.5t-46 -31.5z" />
    <glyph glyph-name="hyphen" unicode="-" horiz-adv-x="408" 
d="M50 217v94h307v-94h-307z" />
    <glyph glyph-name="period" unicode="." horiz-adv-x="253" 
d="M128 -6q-31 0 -49.5 20.5t-18.5 50.5q0 26 18.5 46.5t48.5 20.5q32 0 51 -20.5t19 -46.5q0 -29 -18.5 -50t-50.5 -21z" />
    <glyph glyph-name="slash" unicode="/" horiz-adv-x="334" 
d="M77 -42h-83l252 767h83z" />
    <glyph glyph-name="zero" unicode="0" horiz-adv-x="517" 
d="M472 175q0 -44 -19 -78t-49.5 -56.5t-68.5 -34t-76 -11.5t-76.5 11.5t-69 34t-49.5 56.5t-19 78v338q0 45 19.5 79t50 57t68.5 35t76 12t76 -12t68.5 -35t49.5 -57t19 -79v-338zM365 489q0 29 -10 49t-25.5 32.5t-34 18t-36.5 5.5t-36.5 -5.5t-34 -18t-25.5 -32.5
t-10 -49v-290q0 -29 10 -48.5t25.5 -32t34 -18t36.5 -5.5t36.5 5.5t34 18t25.5 32t10 48.5v290z" />
    <glyph glyph-name="one" unicode="1" horiz-adv-x="517" 
d="M241 0v554l-82 -68l-58 77q12 10 32 27.5t41.5 36t42 35.5t32.5 27h98v-689h-106z" />
    <glyph glyph-name="two" unicode="2" horiz-adv-x="517" 
d="M471 508q0 -32 -12 -61t-31.5 -55t-43.5 -48t-48 -41t-53.5 -39t-56 -44t-45.5 -54.5t-23 -70.5h311v-95h-422v89q0 42 13.5 77.5t36 66t51.5 56.5t61 48q28 19 55.5 39t49 41t34.5 43t13 46q0 22 -10 38.5t-26 27.5t-37 16.5t-42 5.5q-38 0 -73.5 -14t-63.5 -37l-55 83
q36 31 87 50.5t111 19.5q41 0 80.5 -10t70 -32.5t49.5 -58t19 -87.5z" />
    <glyph glyph-name="three" unicode="3" horiz-adv-x="517" 
d="M241 695q39 0 76.5 -9.5t67.5 -31.5t48 -56.5t18 -84.5q0 -51 -24 -91.5t-69 -59.5q47 -20 71.5 -64t24.5 -93q0 -54 -19 -94t-49.5 -66t-70.5 -39t-82 -13q-62 0 -114.5 19.5t-87.5 50.5q4 6 11.5 17.5t16.5 24.5t17 24.5t12 17.5q28 -23 66 -38t73 -15q56 0 87.5 27.5
t31.5 77.5q0 48 -28.5 79t-73.5 31h-80v93h80q18 0 35.5 6.5t31.5 19.5t22.5 32.5t8.5 44.5t-9.5 42t-24.5 27.5t-34.5 15t-39.5 4.5q-35 0 -74 -15t-66 -39l-12 18t-17 25t-17 24.5t-12 17.5q35 31 89 50.5t116 19.5z" />
    <glyph glyph-name="four" unicode="4" horiz-adv-x="517" 
d="M432 103v-103h-108v103h-294v88q13 28 31 68t39 86t43 95t43 95t38.5 86t30.5 68h113l-219 -491h175v202h108v-202h58v-95h-58z" />
    <glyph glyph-name="five" unicode="5" horiz-adv-x="517" 
d="M470 181q0 -44 -18 -78.5t-48.5 -58.5t-70 -36.5t-82.5 -12.5q-63 0 -112.5 19t-84.5 51l59 86q32 -29 65.5 -42t69.5 -13q15 0 34.5 4.5t37.5 15.5t30.5 30.5t12.5 48.5v83q0 43 -21 63.5t-56 20.5q-15 0 -33 -5.5t-36 -14t-33 -17.5t-24 -16l-98 39v341h387v-98h-279
v-166q34 22 68.5 33.5t61.5 11.5q40 0 71.5 -13.5t53.5 -37.5t33.5 -57t11.5 -72v-109v0z" />
    <glyph glyph-name="six" unicode="6" horiz-adv-x="517" 
d="M471 182q0 -45 -18 -80t-47 -59t-67.5 -36t-78.5 -12q-43 0 -81.5 12t-67 35t-45.5 57.5t-17 79.5v330q0 45 17.5 80t47.5 59t69 36t82 12q63 0 111.5 -19t83.5 -51l-58 -87q-32 29 -65 42t-69 13q-17 0 -36 -5.5t-36 -18t-28 -32t-11 -47.5v-94q47 28 82 38t63 10
q40 0 71.5 -13.5t53 -37.5t33 -57.5t11.5 -72.5v-82zM363 255q0 47 -22.5 67t-53.5 20q-30 0 -61.5 -12.5t-68.5 -35.5v-95q0 -28 9.5 -47.5t24 -32t33 -18t36.5 -5.5q17 0 35.5 6t33.5 18.5t24.5 32t9.5 46.5v56z" />
    <glyph glyph-name="seven" unicode="7" horiz-adv-x="517" 
d="M223 0h-115l241 592h-197v-102h-101v199h419v-92z" />
    <glyph glyph-name="eight" unicode="8" horiz-adv-x="517" 
d="M262 695q38 0 75.5 -12t67 -37t47.5 -62.5t18 -87.5q0 -48 -21 -86.5t-58 -56.5q46 -20 69.5 -63.5t23.5 -90.5q0 -53 -20 -92t-52 -64t-72 -37t-80 -12q-43 0 -83 11.5t-71 36t-49.5 62.5t-18.5 90q0 26 7.5 50.5t21 45.5t30.5 37.5t37 25.5q-38 17 -59 55t-21 89
q0 50 18.5 87t48.5 62t67 37t74 12zM363 496q0 47 -30.5 72t-70.5 25q-19 0 -37.5 -6.5t-32.5 -19t-23 -30.5t-9 -41q0 -24 8.5 -42.5t23 -31t32.5 -19t38 -6.5q19 0 37.5 7t32.5 19.5t22.5 31t8.5 41.5zM261 298q-22 0 -42 -7t-35 -20.5t-24 -32t-9 -42.5q0 -48 30.5 -74.5
t79.5 -26.5q48 0 79 26.5t31 76.5q0 22 -9 40.5t-24 32t-35 20.5t-42 7z" />
    <glyph glyph-name="nine" unicode="9" horiz-adv-x="517" 
d="M465 181q0 -45 -17.5 -79.5t-47 -58.5t-68.5 -36t-82 -12q-64 0 -112.5 19t-83.5 51l59 86q61 -54 133 -54q16 0 35.5 5.5t36 18t27.5 32t11 47.5v98q-47 -26 -81 -36.5t-63 -10.5q-78 0 -123 49t-45 133v73q0 45 17.5 80.5t46.5 60t67 37t80 12.5q43 0 81 -12.5
t66.5 -36.5t45.5 -59.5t17 -80.5v-326zM356 492q0 28 -9 47.5t-23.5 32t-32.5 18t-36 5.5t-36.5 -6t-33.5 -18.5t-24.5 -32t-9.5 -46.5v-51q0 -47 22.5 -66.5t54.5 -19.5q29 0 60.5 12.5t67.5 34.5v90z" />
    <glyph glyph-name="colon" unicode=":" horiz-adv-x="282" 
d="M139 288q-31 0 -49.5 20t-18.5 50q0 27 18.5 47.5t48.5 20.5q32 0 51 -20.5t19 -47.5q0 -29 -18.5 -49.5t-50.5 -20.5zM139 -6q-31 0 -49.5 20.5t-18.5 50.5q0 26 18.5 46.5t48.5 20.5q32 0 51 -20.5t19 -46.5q0 -29 -18.5 -50t-50.5 -21z" />
    <glyph glyph-name="semicolon" unicode=";" horiz-adv-x="271" 
d="M135 288q-31 0 -49.5 20t-18.5 50q0 27 18.5 47.5t49.5 20.5q32 0 51 -20.5t19 -47.5q0 -29 -18.5 -49.5t-51.5 -20.5zM55 -95q24 18 39 40.5t18 49.5q-23 3 -37 21.5t-14 44.5q0 27 20 47t50 20q20 0 34.5 -7.5t24 -20t14 -29t4.5 -33.5q0 -29 -9 -56.5t-24.5 -51.5
t-37 -43.5t-45.5 -31.5z" />
    <glyph glyph-name="less" unicode="&#x3c;" horiz-adv-x="517" 
d="M37 257v78l441 209v-91l-334 -157l334 -157v-91z" />
    <glyph glyph-name="equal" unicode="=" horiz-adv-x="517" 
d="M25 357v82h465v-82h-465zM25 153v81h465v-81h-465z" />
    <glyph glyph-name="greater" unicode="&#x3e;" horiz-adv-x="517" 
d="M37 48v91l335 157l-335 157v91l441 -209v-78z" />
    <glyph glyph-name="question" unicode="?" horiz-adv-x="474" 
d="M228 700q43 0 79.5 -13.5t63.5 -37t42 -56t15 -70.5q0 -46 -21.5 -83t-47 -70.5t-47 -66.5t-21.5 -71v-36h-107v34q0 46 19 81t41.5 66.5t41.5 63t19 69.5q0 35 -25 60.5t-69 25.5q-35 0 -68.5 -12.5t-60.5 -35.5l-53 87q45 35 94.5 50t104.5 15zM171 64q0 26 18.5 46.5
t48.5 20.5q32 0 51.5 -20.5t19.5 -46.5q0 -29 -18.5 -49t-51.5 -20q-31 0 -49.5 19.5t-18.5 49.5z" />
    <glyph glyph-name="at" unicode="@" horiz-adv-x="849" 
d="M814 377q0 -52 -15.5 -93.5t-41 -70t-58.5 -44t-68 -15.5q-31 0 -64.5 11.5t-49.5 40.5q-32 -19 -65.5 -31.5t-66.5 -12.5q-60 0 -92 33t-32 86q0 33 15 55.5t37 36.5t47 20t45 6h99v18q0 36 -22.5 51t-58.5 15q-20 0 -45 -6t-54 -29q-11 15 -21.5 30t-21.5 31
q40 32 76 42t70 10q75 0 118.5 -36.5t43.5 -110.5v-145q0 -21 14 -29.5t34 -8.5q15 0 32.5 8.5t32 26t24 45t9.5 66.5q0 58 -19 108t-56 87.5t-90 59t-120 21.5q-69 0 -128 -23t-102.5 -63.5t-68 -95t-24.5 -116.5q0 -63 22 -117t62 -94t94.5 -62.5t120.5 -22.5q29 0 57.5 5
t70.5 21l25 -71q-43 -18 -85 -23t-71 -5q-83 0 -152 27.5t-118.5 76.5t-77 116.5t-27.5 147.5t31 148.5t85.5 118.5t128 78t157.5 28q88 0 156 -27.5t114 -75.5t70 -111.5t24 -135.5zM505 332h-84q-10 0 -22.5 -1t-24 -6t-19 -14.5t-7.5 -26.5q0 -21 15 -33t41 -12
q29 0 55.5 12t45.5 23v58z" />
    <glyph glyph-name="A" unicode="A" horiz-adv-x="617" 
d="M437 149h-257l-49 -149h-121l241 689h116l241 -689h-124zM213 248h191l-41 129l-53 175h-4l-51 -168z" />
    <glyph glyph-name="B" unicode="B" horiz-adv-x="608" 
d="M565 203q0 -39 -12.5 -75.5t-37.5 -65t-62 -45.5t-85 -17h-310v689h298q49 0 86.5 -15t62 -40.5t37 -58.5t12.5 -70q0 -40 -20 -79.5t-65 -64.5q50 -25 73 -69.5t23 -88.5zM438 497q0 46 -28.5 67.5t-79.5 21.5h-157v-177h162q45 0 74 23t29 65zM448 205q0 48 -32.5 76
t-77.5 28h-165v-207h166q54 0 81.5 27.5t27.5 75.5z" />
    <glyph glyph-name="C" unicode="C" horiz-adv-x="544" 
d="M457 542q-29 25 -68 37t-76 12q-26 0 -51.5 -8t-45.5 -25t-32.5 -44t-12.5 -65v-209q0 -38 12.5 -65t33 -44t45.5 -25t50 -8q37 0 75 10.5t72 37.5l54 -88q-35 -29 -88 -47t-113 -18q-50 0 -96 14.5t-81.5 43t-57 70.5t-21.5 96v255q0 54 21.5 95.5t57 70t81.5 43.5
t95 15q57 0 109.5 -16t92.5 -49z" />
    <glyph glyph-name="D" unicode="D" horiz-adv-x="611" 
d="M559 223q0 -53 -19.5 -94t-53 -70t-77 -44t-91.5 -15h-259v689h260q48 0 91.5 -14.5t76.5 -43t52.5 -70t19.5 -95.5v-243zM443 445q0 39 -12.5 66t-33.5 43.5t-47 24t-53 7.5h-124v-485h124q25 0 51 7.5t47 24t34.5 43.5t13.5 66v203z" />
    <glyph glyph-name="E" unicode="E" horiz-adv-x="567" 
d="M61 689h467v-103h-353v-189h302v-103h-302v-192h353v-102h-467v689z" />
    <glyph glyph-name="F" unicode="F" horiz-adv-x="540" 
d="M175 395h302v-103h-302v-292h-114v689h467v-103h-353v-191z" />
    <glyph glyph-name="G" unicode="G" horiz-adv-x="593" 
d="M537 87q-45 -52 -105.5 -73t-116.5 -21q-49 0 -95.5 14.5t-83 43t-58.5 70.5t-22 96v254q0 54 21.5 95.5t58 70.5t84 44t99.5 15q58 0 111 -16t92 -49l-56 -89q-29 25 -69 37t-77 12q-28 0 -54.5 -8t-47.5 -25t-34 -44t-13 -65v-209q0 -38 12 -65t32.5 -44t46.5 -25
t53 -8q21 0 49.5 6.5t58.5 29.5v138h-105v100h219v-285v0z" />
    <glyph glyph-name="H" unicode="H" horiz-adv-x="631" 
d="M459 0v298h-289v-298h-114v689h114v-288h289v288h116v-689h-116z" />
    <glyph glyph-name="I" unicode="I" horiz-adv-x="274" 
d="M194 689v-689h-114v689h114z" />
    <glyph glyph-name="J" unicode="J" horiz-adv-x="527" 
d="M451 219q0 -54 -19.5 -96t-53 -71t-77 -44t-91.5 -15q-26 0 -53.5 3.5t-53.5 11t-50 18.5t-43 25l53 90q35 -24 67.5 -33.5t63.5 -9.5t57 8t45 25t29.5 45t10.5 69v444h115v-470v0z" />
    <glyph glyph-name="K" unicode="K" horiz-adv-x="609" 
d="M176 358l110 137l161 194h137l-226 -275l245 -414h-134q-47 81 -93.5 161t-93.5 161q-28 -33 -55.5 -65.5t-54.5 -65.5v-191h-115v689h115v-331h4z" />
    <glyph glyph-name="L" unicode="L" horiz-adv-x="540" 
d="M64 0v689h113v-587h355v-102h-468z" />
    <glyph glyph-name="M" unicode="M" horiz-adv-x="763" 
d="M587 420l-64 -130l-97 -191h-84l-94 180l-71 141h-4v-420h-114v689h107l131 -262l85 -177h6l84 179l128 260h105v-689h-114v420h-4z" />
    <glyph glyph-name="N" unicode="N" horiz-adv-x="660" 
d="M173 473v-473h-114v689h106l205 -305l111 -171h6v476h114v-689h-107l-208 310l-106 163h-7z" />
    <glyph glyph-name="O" unicode="O" horiz-adv-x="625" 
d="M572 223q0 -54 -20 -97t-55.5 -72.5t-83 -45t-101.5 -15.5q-55 0 -102.5 15.5t-82 45t-54.5 72.5t-20 97v245q0 54 20.5 96t55.5 71.5t82 45t101 15.5q53 0 100.5 -16t83 -45.5t56 -72t20.5 -96.5v-243zM457 449q0 37 -12 64t-32 44.5t-46.5 25.5t-54.5 8q-29 0 -55 -8
t-45.5 -25.5t-31.5 -44.5t-12 -64v-209q0 -38 12 -65t32 -44t46 -25t54 -8t54.5 8t46.5 25t32 44t12 65v209z" />
    <glyph glyph-name="P" unicode="P" horiz-adv-x="565" 
d="M170 372h158q50 0 79.5 29.5t29.5 77.5t-29.5 77.5t-79.5 29.5h-158v-214zM353 689q50 0 87 -19t61 -49t36 -67.5t12 -74.5t-13.5 -74.5t-39 -68t-62 -49.5t-83.5 -19h-181v-268h-114v689h297z" />
    <glyph glyph-name="Q" unicode="Q" horiz-adv-x="635" 
d="M460 -178q-21 -3 -40 -3q-73 0 -116 34t-43 101v44q-45 6 -82.5 24t-65 47t-42.5 68t-15 87v240q0 54 20.5 97t55.5 73t82 46t101 16q53 0 100.5 -16t83 -46t56 -72.5t20.5 -96.5v-241q0 -48 -16 -87t-43.5 -68t-66 -47t-83.5 -24v-16q0 -21 3.5 -35t12.5 -21.5t24 -10.5
t39 -3h15v-90zM460 432q0 37 -9 64q-6 25 -19.5 43t-31.5 29t-40 16.5t-45 5.5q-29 0 -55 -8t-45.5 -25t-31.5 -44t-12 -65v-193q0 -34 8 -64q13 -50 51.5 -71.5t84.5 -21.5q28 0 54.5 7.5t46.5 24.5t32 44t12 65v193z" />
    <glyph glyph-name="R" unicode="R" horiz-adv-x="583" 
d="M354 689q52 0 89 -19t61 -49.5t35.5 -68t11.5 -74.5q0 -28 -8 -56.5t-23 -54t-36.5 -46t-49.5 -33.5l126 -288h-124l-113 268h-151v-268h-115v689h297zM439 478q0 48 -29.5 77.5t-80.5 29.5h-157v-213h157q51 0 80.5 29t29.5 77z" />
    <glyph glyph-name="S" unicode="S" horiz-adv-x="577" 
d="M545 195q0 -48 -19 -85.5t-52.5 -63t-80.5 -39t-102 -13.5q-73 0 -137.5 20.5t-124.5 69.5l64 83q45 -33 95.5 -51.5t101.5 -18.5q68 0 101.5 27.5t33.5 69.5q0 29 -13.5 47t-36.5 30t-52.5 19t-61.5 15q-40 9 -77.5 23t-66 36.5t-46 55t-17.5 79.5q0 44 16 81t46 64
t72 42.5t94 15.5q62 0 122.5 -12.5t115.5 -47.5l-51 -94q-46 28 -91.5 39t-89.5 11q-24 0 -45.5 -6t-38 -18t-26.5 -30.5t-10 -43.5t13 -42t34.5 -28.5t49 -19t57.5 -13.5q49 -11 90 -26t70.5 -38.5t46 -56.5t16.5 -81z" />
    <glyph glyph-name="T" unicode="T" horiz-adv-x="524" 
d="M320 585v-585h-115v585h-191v104h496v-104h-190z" />
    <glyph glyph-name="U" unicode="U" horiz-adv-x="627" 
d="M574 218q0 -54 -21.5 -96t-57.5 -70.5t-83 -43.5t-98 -15q-52 0 -99 14.5t-82.5 43t-56.5 70.5t-21 96v472h114v-451q0 -38 12 -64.5t32.5 -43.5t46.5 -25t54 -8q27 0 53.5 8t46.5 25t32.5 43.5t12.5 64.5v451h115v-471v0z" />
    <glyph glyph-name="V" unicode="V" horiz-adv-x="584" 
d="M296 172l70 240l85 277h122l-221 -689h-120l-222 689h124l88 -286l68 -231h6z" />
    <glyph glyph-name="W" unicode="W" horiz-adv-x="885" 
d="M439 490l-51 -206l-72 -284h-127l-179 689h123l69 -295l50 -220h6l54 222l74 293h112l77 -305l52 -210h5l48 212l71 303h123l-180 -689h-126l-73 286l-50 204h-6z" />
    <glyph glyph-name="X" unicode="X" horiz-adv-x="572" 
d="M286 258l-148 -258h-130l216 353l-203 336h131l134 -241l135 241h130l-202 -336l216 -353h-130z" />
    <glyph glyph-name="Y" unicode="Y" horiz-adv-x="556" 
d="M282 382l66 150l74 157h122l-208 -422v-267h-115v267l-210 422h124l75 -161l65 -146h7z" />
    <glyph glyph-name="Z" unicode="Z" horiz-adv-x="531" 
d="M35 99l325 487h-312v103h450v-96l-330 -491h329v-102h-462v99z" />
    <glyph glyph-name="bracketleft" unicode="[" horiz-adv-x="278" 
d="M71 -102v800h189v-72h-94v-656h94v-72h-189z" />
    <glyph glyph-name="backslash" unicode="\" horiz-adv-x="334" 
d="M-6 725h84l251 -767h-83z" />
    <glyph glyph-name="bracketright" unicode="]" horiz-adv-x="278" 
d="M24 -102v72h93v656h-93v72h188v-800h-188z" />
    <glyph glyph-name="asciicircum" unicode="^" horiz-adv-x="517" 
d="M409 298l-147 297l-148 -298h-90l199 398h78l199 -397h-91z" />
    <glyph glyph-name="underscore" unicode="_" horiz-adv-x="500" 
d="M0 -139v70h500v-70h-500z" />
    <glyph glyph-name="grave" unicode="`" horiz-adv-x="499" 
d="M282 546l-115 177l98 32l79 -183z" />
    <glyph glyph-name="a" unicode="a" horiz-adv-x="510" 
d="M354 45q-53 -30 -89.5 -39.5t-67.5 -9.5q-74 0 -116 40t-42 110q0 41 18 69t45 45.5t58.5 25.5t58.5 8h137v30q0 44 -25 63t-77 19q-25 0 -61.5 -7.5t-73.5 -37.5l-49 79q50 38 100.5 49.5t93.5 11.5q102 0 150 -45t48 -137v-319h-96l-9 43zM356 212h-119q-14 0 -29 -2
t-27.5 -8.5t-21 -18.5t-8.5 -33q0 -28 20 -43.5t53 -15.5q18 0 36 4.5t35.5 11t33 14.5t27.5 15v76z" />
    <glyph glyph-name="b" unicode="b" horiz-adv-x="513" 
d="M468 174q0 -88 -46.5 -133.5t-121.5 -45.5q-26 0 -62 10t-85 39l-10 -44h-96v716h106v-267q55 31 91 41.5t62 10.5q83 0 122.5 -47.5t39.5 -130.5v-149zM361 309q0 51 -21 70.5t-54 19.5q-28 0 -63 -16t-70 -38v-205q13 -9 31 -17t36 -14.5t35.5 -10t30.5 -3.5
q32 0 53.5 21t21.5 69v124z" />
    <glyph glyph-name="c" unicode="c" horiz-adv-x="441" 
d="M422 62q-40 -41 -85 -54t-90 -13q-42 0 -79 12t-64 35t-42.5 55.5t-15.5 74.5v147q0 44 17 78t45 57t64 35t74 12q22 0 45 -2.5t45.5 -9t44 -19t41.5 -33.5l-62 -79q-34 31 -60.5 38t-46.5 7q-17 0 -35 -5.5t-32.5 -17.5t-24 -31.5t-9.5 -47.5v-106q0 -28 8.5 -47.5
t22.5 -31.5t32 -17.5t37 -5.5q21 0 51 9.5t54 32.5z" />
    <glyph glyph-name="d" unicode="d" horiz-adv-x="513" 
d="M45 323q0 83 47.5 130.5t125.5 47.5q26 0 62.5 -5.5t78.5 -22.5v243h106v-716h-96l-10 49q-51 -31 -86.5 -42.5t-61.5 -11.5q-77 0 -121.5 43.5t-44.5 135.5v149zM151 182q0 -50 21.5 -68.5t54.5 -18.5q13 0 29.5 4t34.5 11t35.5 16t32.5 19v227q-35 14 -65.5 21.5
t-58.5 7.5q-35 0 -59.5 -21t-24.5 -71v-127z" />
    <glyph glyph-name="e" unicode="e" horiz-adv-x="495" 
d="M152 213v-25q0 -26 9 -44.5t23.5 -30t34 -17t40.5 -5.5q23 0 55.5 8t64.5 37q16 -19 31.5 -36.5t30.5 -36.5q-42 -41 -88.5 -54.5t-93.5 -13.5q-43 0 -81.5 11t-68 33.5t-46.5 56.5t-17 80v130q0 45 15.5 81t43.5 61t65 38.5t81 13.5q45 0 83 -13t65.5 -37.5t42.5 -59.5
t15 -80v-97h-305zM350 304q0 52 -29 75.5t-69 23.5t-69.5 -24.5t-29.5 -73.5v-16h197v15z" />
    <glyph glyph-name="f" unicode="f" horiz-adv-x="310" 
d="M187 405v-405h-104v405h-59v90h59v86q0 34 11 59.5t29.5 42.5t43.5 25t54 8h88v-91h-73q-29 0 -39 -16t-10 -40v-74h122v-90h-122z" />
    <glyph glyph-name="g" unicode="g" horiz-adv-x="511" 
d="M463 -29q0 -44 -19.5 -77.5t-51 -56t-70.5 -33.5t-79 -11q-45 0 -95.5 15.5t-92.5 57.5l67 73q12 -12 27.5 -21t32.5 -15t33 -8.5t28 -2.5q22 0 42.5 5.5t36 17.5t25 31t9.5 47v53q-47 -29 -85.5 -38.5t-64.5 -9.5q-78 0 -121 47t-43 130v146q0 86 45.5 133t120.5 47
q27 0 63 -11t85 -42l10 47h97v-524zM149 189q0 -50 21 -70.5t54 -19.5q28 0 63.5 13t68.5 34v201q-32 23 -68.5 37.5t-63.5 14.5q-33 0 -54 -20t-21 -70v-120z" />
    <glyph glyph-name="h" unicode="h" horiz-adv-x="513" 
d="M364 0v309q0 25 -6 42.5t-16.5 28t-24.5 15t-30 4.5q-27 0 -61 -13t-72 -37v-349h-106v716h106v-271q57 37 94.5 46.5t64.5 9.5q82 0 120 -47.5t38 -130.5v-323h-107z" />
    <glyph glyph-name="i" unicode="i" horiz-adv-x="254" 
d="M74 0v495h106v-495h-106zM66 637q0 26 17.5 43.5t42.5 17.5q26 0 43.5 -17.5t17.5 -43.5t-17.5 -43.5t-43.5 -17.5q-25 0 -42.5 17.5t-17.5 43.5z" />
    <glyph glyph-name="j" unicode="j" horiz-adv-x="257" 
d="M189 -52q0 -78 -41 -114.5t-110 -36.5h-53v94h36q37 0 49.5 17t12.5 56v531h106v-547zM76 638q0 25 17 42.5t43 17.5t43.5 -17.5t17.5 -42.5q0 -26 -17.5 -43.5t-43.5 -17.5t-43 17.5t-17 43.5z" />
    <glyph glyph-name="k" unicode="k" horiz-adv-x="499" 
d="M47 0v716h107v-379h57q30 0 51.5 12t39.5 48l51 100h119l-60 -125q-14 -29 -30 -49t-46 -31q21 -7 35 -18.5t23 -25.5t15 -30t11 -32l62 -186h-118l-51 160q-14 44 -35 60t-60 16h-64v-236h-107z" />
    <glyph glyph-name="l" unicode="l" horiz-adv-x="281" 
d="M181 145q0 -36 15 -45t56 -9l2 -92q-15 -3 -29 -4t-26 -1q-40 0 -64 9.5t-37.5 27t-18 42t-4.5 55.5v588h106v-571z" />
    <glyph glyph-name="m" unicode="m" horiz-adv-x="774" 
d="M292 501q46 0 77.5 -19t48.5 -53q31 24 54.5 38t42.5 21.5t34 10t28 2.5q76 0 114.5 -44.5t38.5 -127.5v-329h-106v314q0 45 -18 64.5t-53 19.5q-24 0 -51 -13t-63 -41q1 -11 1.5 -20t0.5 -20v-304h-107v316q0 46 -19.5 64t-46.5 18t-53 -10.5t-64 -36.5v-351h-107v495
h97l9 -51q52 37 84 47t58 10z" />
    <glyph glyph-name="n" unicode="n" horiz-adv-x="513" 
d="M362 0v309q0 51 -22 70.5t-55 19.5q-27 0 -61 -13t-72 -37v-349h-106v495h96l10 -49q30 18 54.5 29t44 17t35 7.5t28.5 1.5q78 0 116.5 -47t38.5 -130v-324h-107z" />
    <glyph glyph-name="o" unicode="o" horiz-adv-x="512" 
d="M466 175q0 -44 -17.5 -78t-47 -56.5t-67.5 -34t-79 -11.5q-42 0 -80.5 11.5t-67 34t-45.5 56.5t-17 78v144q0 44 17.5 78t46.5 57t67 35t80 12q45 0 83 -12t66.5 -35.5t44.5 -57.5t16 -78v-143zM361 300q0 28 -9.5 47.5t-24.5 31.5t-34 17.5t-37 5.5t-37 -5.5t-34 -17.5
t-24.5 -31.5t-9.5 -47.5v-105q0 -56 31 -79t74 -23q18 0 37 5.5t34 17.5t24.5 31.5t9.5 47.5v105z" />
    <glyph glyph-name="p" unicode="p" horiz-adv-x="514" 
d="M471 172q0 -83 -45.5 -130.5t-128.5 -47.5q-26 0 -62 5t-79 25v-222h-106v693h96l10 -49q51 31 87 42.5t62 11.5q77 0 121.5 -43.5t44.5 -135.5v-149zM364 312q0 50 -21.5 68.5t-54.5 18.5q-13 0 -29.5 -4t-34.5 -11t-35.5 -16t-32.5 -19v-226q40 -17 68.5 -23t55.5 -6
q17 0 32.5 4t27 14.5t18 27.5t6.5 42v130z" />
    <glyph glyph-name="q" unicode="q" horiz-adv-x="509" 
d="M43 322q0 88 46.5 133.5t121.5 45.5q26 0 61.5 -10.5t86.5 -40.5l10 45h95v-694h-106v241q-52 -29 -88 -38t-62 -9q-78 0 -121.5 47.5t-43.5 130.5v149zM150 187q0 -50 21.5 -70t54.5 -19q27 0 61.5 12.5t70.5 35.5v209q-32 19 -69.5 33t-62.5 14q-33 0 -54.5 -21
t-21.5 -70v-124z" />
    <glyph glyph-name="r" unicode="r" horiz-adv-x="356" 
d="M349 391q-66 -6 -109.5 -22t-72.5 -34v-335h-106v496h96l9 -73h1q13 13 33.5 27t45 25.5t51 19t52.5 7.5v-111z" />
    <glyph glyph-name="s" unicode="s" horiz-adv-x="460" 
d="M232 -6q-54 0 -105 13t-105 56l58 77q37 -31 75 -42.5t80 -11.5q35 0 62.5 15t27.5 46q0 26 -18 38.5t-53 18.5q-36 6 -73 13.5t-67 22.5t-49 40.5t-19 67.5q0 36 15 64.5t40.5 48t58.5 30t70 10.5q57 0 102.5 -11.5t89.5 -43.5l-52 -79q-36 23 -70 31.5t-69 8.5
q-38 0 -59.5 -17t-21.5 -40t21 -33.5t52.5 -17t68.5 -13.5t68.5 -22t52.5 -42.5t21 -74.5q0 -36 -15.5 -64.5t-43 -48t-64.5 -30t-79 -10.5z" />
    <glyph glyph-name="t" unicode="t" horiz-adv-x="370" 
d="M27 405v90h68l21 119h82v-119h129v-90h-129v-224q0 -47 13 -67.5t56 -20.5q13 0 34 2.5t43 9.5l21 -93q-30 -11 -63.5 -14t-53.5 -3q-44 0 -73.5 11.5t-47.5 33t-26 53t-8 71.5v241h-66z" />
    <glyph glyph-name="u" unicode="u" horiz-adv-x="516" 
d="M151 495v-310q0 -50 23 -70t55 -20q55 0 132 54v346h107v-495h-97l-10 48q-58 -35 -93.5 -44.5t-60.5 -9.5q-81 0 -122 49.5t-41 132.5v319h107z" />
    <glyph glyph-name="v" unicode="v" horiz-adv-x="480" 
d="M245 139q1 4 5 17.5t9.5 32t12 38.5t12 38.5t9.5 32t6 17.5l57 180h116l-177 -495h-109l-178 495h118l58 -178l56 -178h5z" />
    <glyph glyph-name="w" unicode="w" horiz-adv-x="714" 
d="M356 305l-50 -160l-47 -145h-104l-140 496h111l43 -170l41 -173h4l57 173l40 122h97l45 -136l50 -161h5l41 176l42 169h108l-135 -496h-105l-49 149l-50 156h-4z" />
    <glyph glyph-name="x" unicode="x" horiz-adv-x="470" 
d="M337 0l-104 171l-106 -171h-126l175 253l-166 243h127l96 -161l98 161h127l-168 -241l175 -255h-128z" />
    <glyph glyph-name="y" unicode="y" horiz-adv-x="479" 
d="M106 -200l75 210l-36 29l-135 457h112l53 -203l49 -181h3l63 182l67 202h112l-253 -696h-110z" />
    <glyph glyph-name="z" unicode="z" horiz-adv-x="462" 
d="M39 0v85l254 319h-240v91h371v-85l-253 -317h253v-93h-385z" />
    <glyph glyph-name="braceleft" unicode="{" horiz-adv-x="278" 
d="M192 -99q-50 0 -75.5 33t-25.5 102v102q0 56 -17.5 89t-59.5 36v69q39 4 58 36.5t19 80.5v133q0 52 29 83t72 31h78v-70h-41q-13 0 -21.5 -7t-13.5 -18.5t-7 -25t-2 -26.5v-123q0 -29 -8 -51t-20 -37.5t-25 -25t-23 -13.5v-2q11 -4 24.5 -13.5t25 -25t19 -37t7.5 -49.5
v-126q0 -13 1.5 -26.5t6 -25t13.5 -18.5t23 -7h41v-68h-78z" />
    <glyph glyph-name="bar" unicode="|" horiz-adv-x="222" 
d="M69 -184v905h84v-905h-84z" />
    <glyph glyph-name="braceright" unicode="}" horiz-adv-x="278" 
d="M267 263q-43 -3 -60 -36t-17 -89v-102q0 -61 -25 -98t-76 -37h-78v68h41q14 0 22.5 7t13.5 18.5t6.5 25t1.5 26.5v126q0 28 7.5 49.5t19 37t24.5 25t25 13.5v2q-11 4 -24 13.5t-24.5 25t-19.5 37.5t-8 51v123q0 13 -1 26.5t-5.5 25t-13.5 18.5t-24 7h-41v67h76
q49 0 76 -31t27 -80v-133q0 -49 19 -81t58 -36v-69v0z" />
    <glyph glyph-name="asciitilde" unicode="~" horiz-adv-x="517" 
d="M164 354q23 0 48 -10t49.5 -21.5t48 -21.5t44.5 -10q20 0 38 12.5t42 48.5l66 -47q-29 -51 -64 -76t-82 -25q-23 0 -47 10t-48.5 21.5t-49 21.5t-47.5 10q-25 0 -43 -12.5t-39 -41.5l-62 50q26 45 61.5 68t84.5 23z" />
    <glyph glyph-name="exclamdown" unicode="&#xa1;" horiz-adv-x="251" 
d="M173 297l7 -498h-107l7 498h93zM127 501q31 0 49.5 -20t18.5 -50q0 -26 -18.5 -46.5t-48.5 -20.5q-32 0 -51.5 20.5t-19.5 46.5q0 29 18.5 49.5t51.5 20.5z" />
    <glyph glyph-name="cent" unicode="&#xa2;" horiz-adv-x="441" 
d="M422 62q-35 -35 -73 -49t-76 -17v-120h-49v120q-38 3 -70.5 16t-56.5 35.5t-37.5 54t-13.5 70.5v147q0 40 14.5 72.5t39 55.5t57 36.5t67.5 16.5v112h49v-112q38 -2 77 -15t72 -48l-62 -79q-26 24 -48 33t-39 11v-308q20 3 42.5 13t41.5 28zM152 195q0 -45 21.5 -68.5
t50.5 -30.5v303q-28 -8 -50 -31t-22 -67v-106z" />
    <glyph glyph-name="sterling" unicode="&#xa3;" horiz-adv-x="517" 
d="M404 535q-29 39 -61 52.5t-64 13.5q-14 0 -29 -5.5t-28.5 -16.5t-22 -28.5t-8.5 -41.5q0 -18 4.5 -35.5t11.5 -35.5t13.5 -36.5t11.5 -39.5h153v-80h-148q-2 -49 -13.5 -97t-40.5 -93h299v-92h-433v79q34 45 56 94t25 109h-83v80h68q-5 19 -12 37.5t-13 37t-10.5 37
t-4.5 37.5q0 36 13 69.5t38 59.5t62.5 41.5t86.5 15.5q64 0 115 -20.5t93 -76.5z" />
    <glyph glyph-name="currency" unicode="&#xa4;" horiz-adv-x="556" 
d="M35 502l57 57l68 -68q57 36 116 36q32 0 60 -9t56 -26l12 12t21 21.5t21 21.5t13 12l57 -58l-68 -67q17 -28 26.5 -56.5t9.5 -57.5q0 -31 -9 -58.5t-27 -56.5q15 -14 34 -32t34 -34l-57 -58l-67 68q-27 -18 -55.5 -27.5t-60.5 -9.5q-61 0 -116 37l-68 -68q-3 3 -11 11.5
t-17.5 17.5t-17.5 17l-11 11l69 67q-36 57 -36 115q0 29 9.5 57.5t26.5 56.5zM151 320q0 -26 9.5 -48.5t26.5 -39.5t39.5 -27t48.5 -10t49 10t40 27t26.5 39.5t9.5 48.5t-9.5 49t-26.5 40t-40 26.5t-49 9.5t-48.5 -10t-39.5 -27t-26.5 -39.5t-9.5 -48.5z" />
    <glyph glyph-name="yen" unicode="&#xa5;" horiz-adv-x="517" 
d="M50 223h152v44l-15 32h-136v72h105l-140 318h123l117 -305h7l116 305h123l-140 -318h107v-72h-139l-13 -32v-44h152v-69h-152v-154h-115v154h-152v69z" />
    <glyph glyph-name="brokenbar" unicode="&#xa6;" horiz-adv-x="222" 
d="M69 297v424h84v-424h-84zM153 237v-421h-84v421h84z" />
    <glyph glyph-name="section" unicode="&#xa7;" horiz-adv-x="445" 
d="M406 307q0 -35 -13.5 -64t-41.5 -58q12 -14 21.5 -35.5t9.5 -47.5q0 -40 -15 -69.5t-39.5 -49t-56 -29t-65.5 -9.5q-39 0 -76.5 10t-66.5 31l35 73q23 -16 49.5 -25t58.5 -9q30 0 53.5 16t23.5 49q0 29 -19.5 51t-73.5 46q-29 13 -55.5 27.5t-47 33.5t-32.5 44t-12 58
q0 28 12.5 59.5t45.5 60.5q-14 16 -22 35.5t-8 44.5q0 37 14 66t38 48t55.5 29t66.5 10t72.5 -9t65.5 -27l-41 -76q-24 15 -47.5 23t-51.5 8q-13 0 -26.5 -4t-24 -11.5t-17 -19t-6.5 -26.5q0 -39 44 -66q35 -21 69.5 -37.5t62 -36t44.5 -46t17 -68.5zM167 418
q-30 -24 -30 -58q0 -21 9.5 -35.5t25 -25t34.5 -19t39 -19.5l33 -18q31 20 31 52q0 23 -13.5 41t-34.5 32.5t-46 26.5t-48 23z" />
    <glyph glyph-name="dieresis" unicode="&#xa8;" horiz-adv-x="490" 
d="M282 632q0 24 17 41t41 17q25 0 42 -17t17 -41t-17 -41t-42 -17q-24 0 -41 17t-17 41zM86 632q0 24 17 41t40 17q25 0 42 -17t17 -41t-17 -41t-42 -17q-23 0 -40 17t-17 41z" />
    <glyph glyph-name="copyright" unicode="&#xa9;" horiz-adv-x="809" 
d="M406 -11q-75 0 -139.5 26.5t-111 73.5t-73 111.5t-26.5 140.5t27 141t74 112t111 74t138 27q75 0 139 -26.5t111 -73.5t74 -112t27 -142q0 -76 -27 -140.5t-74 -111.5t-111 -73.5t-139 -26.5zM406 628q-59 0 -110 -22t-88.5 -60t-59 -91t-21.5 -114t21.5 -113t59 -90.5
t88.5 -60t110 -21.5q60 0 111 21.5t88.5 60t58.5 90.5t21 113q0 62 -21 114.5t-58.5 91t-88.5 60t-111 21.5zM509 455q-20 17 -46 25.5t-52 8.5q-17 0 -34.5 -5.5t-31 -17t-22 -30t-8.5 -44.5v-112q0 -26 8.5 -44.5t22.5 -30t31 -17t34 -5.5q25 0 51 7.5t49 25.5l37 -58
q-24 -20 -60 -32.5t-77 -12.5q-33 0 -64.5 10t-55.5 29.5t-38.5 48t-14.5 64.5v140q0 36 14.5 64.5t38.5 48t55 30t64 10.5q39 0 75 -10.5t62 -33.5z" />
    <glyph glyph-name="ordfeminine" unicode="&#xaa;" horiz-adv-x="352" 
d="M239 308q-20 -17 -47 -26.5t-55 -9.5q-54 0 -84 27t-30 75q0 28 10.5 47.5t27 31.5t36 17t37.5 5h103v14q0 25 -17.5 36t-47.5 11q-17 0 -38.5 -5t-49.5 -25l-39 60q36 25 69.5 33t62.5 8q146 0 146 -122v-210h-78zM238 412h-75q-9 0 -18 -1.5t-17 -5t-13 -10.5t-5 -18
q0 -14 11.5 -24t31.5 -10q23 0 45.5 8.5t39.5 19.5v41z" />
    <glyph glyph-name="guillemotleft" unicode="&#xab;" horiz-adv-x="503" 
d="M368 34l-133 195l133 196h99l-129 -196l129 -195h-99zM178 34l-133 195l133 196h98l-130 -196l130 -195h-98z" />
    <glyph glyph-name="logicalnot" unicode="&#xac;" horiz-adv-x="517" 
d="M489 64h-84v190h-380v81h464v-271z" />
    <glyph glyph-name="sfthyphen" unicode="&#xad;" horiz-adv-x="408" 
d="M50 217v94h307v-94h-307z" />
    <glyph glyph-name="registered" unicode="&#xae;" horiz-adv-x="549" 
d="M279 467h-40v-98h-44v242h99q31 0 52.5 -19t21.5 -51q0 -23 -12 -40t-33 -27l53 -105h-50zM239 570v-61h49q16 0 26 8.5t10 23.5q0 29 -34 29h-51zM274 280q-45 0 -84 16t-67.5 43.5t-44.5 66t-16 83.5q0 46 16.5 85t45.5 67.5t67.5 44.5t82.5 16q45 0 84 -16t67.5 -44.5
t45 -67.5t16.5 -85q0 -45 -16.5 -83.5t-45.5 -66t-67.5 -43.5t-83.5 -16zM274 659q-36 0 -66.5 -13t-53 -35.5t-35 -53.5t-12.5 -68q0 -36 12.5 -66.5t35 -53t53 -35.5t66.5 -13t66.5 13t53 35.5t35.5 53t13 66.5q0 37 -13 68t-35.5 53.5t-53 35.5t-66.5 13z" />
    <glyph glyph-name="macron" unicode="&#xaf;" horiz-adv-x="499" 
d="M115 593v89h290v-89h-290z" />
    <glyph glyph-name="degree" unicode="&#xb0;" horiz-adv-x="399" 
d="M343 561q0 -29 -11.5 -54.5t-31 -44.5t-45.5 -30t-56 -11t-56 11t-45.5 30t-31 44.5t-11.5 54.5t11.5 55t31 45t45.5 30t56 11t56 -11t45.5 -30t31 -45t11.5 -55zM272 561q0 30 -21 51t-52 21q-30 0 -51.5 -21t-21.5 -51q0 -29 21.5 -50.5t51.5 -21.5q31 0 52 21.5
t21 50.5z" />
    <glyph glyph-name="plusminus" unicode="&#xb1;" horiz-adv-x="517" 
d="M300 301v-174h-84v174h-187v81h187v176h84v-176h187v-81h-187zM27 0v80h461v-80h-461z" />
    <glyph glyph-name="twosuperior" unicode="&#xb2;" horiz-adv-x="337" 
d="M310 666q0 -22 -10 -42t-25.5 -37t-34 -32t-36.5 -27q-12 -8 -28 -18t-30 -22t-24 -25.5t-10 -28.5h198v-71h-284v60q0 29 10 51.5t26.5 41t37.5 34t42 29.5q12 8 27 17.5t27.5 20.5t21 23t8.5 25q0 22 -21 32.5t-45 10.5q-23 0 -45.5 -8.5t-42.5 -23.5l-43 59
q26 20 61.5 33.5t73.5 13.5q28 0 54.5 -6t46.5 -19.5t32.5 -35.5t12.5 -55z" />
    <glyph glyph-name="threesuperior" unicode="&#xb3;" horiz-adv-x="336" 
d="M156 781q27 0 52.5 -6.5t45.5 -20t32 -36t12 -53.5q0 -29 -15.5 -52.5t-46.5 -33.5q35 -13 49.5 -38t14.5 -51q0 -33 -12.5 -58t-33 -41t-47.5 -24t-56 -8q-41 0 -75.5 11.5t-60.5 31.5l42 62q20 -15 44.5 -23t44.5 -8q31 0 51 13.5t20 39.5q0 25 -17.5 39.5t-41.5 14.5
h-58v69h58q20 0 39 13.5t19 40.5q0 12 -6 20.5t-16 14t-21.5 8t-23.5 2.5q-21 0 -45.5 -7t-44.5 -23l-39 60q26 20 61 31.5t75 11.5z" />
    <glyph glyph-name="acute" unicode="&#xb4;" horiz-adv-x="499" 
d="M190 570l76 185l98 -31l-111 -178z" />
    <glyph glyph-name="mu" unicode="&#xb5;" horiz-adv-x="518" 
d="M47 495h107v-309q0 -50 23 -70t55 -19q26 0 58 12.5t74 40.5v345h106v-495h-103l-3 48q-53 -36 -88 -44.5t-62 -8.5q-37 0 -60 17v-211h-107v694z" />
    <glyph glyph-name="mu" unicode="&#x3bc;" horiz-adv-x="518" 
d="M47 495h107v-309q0 -50 23 -70t55 -19q26 0 58 12.5t74 40.5v345h106v-495h-103l-3 48q-53 -36 -88 -44.5t-62 -8.5q-37 0 -60 17v-211h-107v694z" />
    <glyph glyph-name="paragraph" unicode="&#xb6;" horiz-adv-x="538" 
d="M476 58q0 -47 -10 -83t-34 -60.5t-64 -38t-100 -15.5l-6 83q43 6 67.5 16.5t37 26.5t16 38t3.5 49v632h90v-648zM231 327q-41 0 -75.5 15t-60 40.5t-39.5 60t-14 73.5t14.5 73.5t40 60.5t60 41t74.5 15h91v-379h-91z" />
    <glyph glyph-name="periodcentered" unicode="&#xb7;" horiz-adv-x="248" 
d="M125 204q-31 0 -53 22t-22 53q0 32 22.5 53.5t52.5 21.5t52 -21.5t22 -53.5q0 -31 -21 -53t-53 -22z" />
    <glyph glyph-name="cedilla" unicode="&#xb8;" horiz-adv-x="442" 
d="M216 42q14 0 27 -0.5t27 -1.5l-26 -78q28 -2 47 -10.5t30.5 -21t16.5 -26.5t5 -27q0 -15 -6.5 -30t-19.5 -28t-33.5 -21t-48.5 -8q-23 0 -50 4.5t-51 15.5q5 12 9.5 24t9.5 25q23 -9 41.5 -11.5t33.5 -2.5q20 0 33 9t13 25q0 13 -10 24t-33 11q-4 0 -7.5 -0.5t-8.5 -1.5
l-34 18l35 112v0z" />
    <glyph glyph-name="onesuperior" unicode="&#xb9;" horiz-adv-x="309" 
d="M135 364v313l-46 -35l-46 57l100 79h74v-414h-82z" />
    <glyph glyph-name="ordmasculine" unicode="&#xba;" horiz-adv-x="353" 
d="M325 400q0 -30 -11.5 -54t-32 -40.5t-47.5 -25.5t-58 -9q-32 0 -59 9t-47 25.5t-31.5 40.5t-11.5 54v77q0 30 12 54t32 41t47.5 26t57.5 9q66 0 107.5 -35t41.5 -95v-77zM241 469q0 32 -21 47.5t-44 15.5t-44 -15.5t-21 -47.5v-59q0 -33 19.5 -48t45.5 -15q23 0 44 15
t21 48v59z" />
    <glyph glyph-name="guillemotright" unicode="&#xbb;" horiz-adv-x="503" 
d="M45 34l130 195l-130 196h99l133 -196l-133 -195h-99zM236 34l130 195l-130 196h98l134 -196l-134 -195h-98z" />
    <glyph glyph-name="onequarter" unicode="&#xbc;" horiz-adv-x="826" 
d="M168 275v313l-46 -35l-46 57l100 79h74v-414h-82zM227 -17h-78l425 730h79zM709 59v-59h-79v59h-189v61l147 293h87l-141 -284h96v113h79v-113h41v-70h-41z" />
    <glyph glyph-name="onehalf" unicode="&#xbd;" horiz-adv-x="826" 
d="M763 303q0 -22 -10 -42t-25.5 -37t-34 -32t-36.5 -27q-12 -8 -28 -18t-30 -22t-24 -25.5t-10 -28.5h198v-71h-284v60q0 29 10 51.5t26.5 41t37.5 34t42 29.5q12 8 27 17.5t27.5 20.5t21 23t8.5 25q0 22 -21 32.5t-45 10.5q-23 0 -45.5 -8.5t-42.5 -23.5l-43 59
q26 20 61.5 33.5t73.5 13.5q28 0 54.5 -6t46.5 -19.5t32.5 -35.5t12.5 -55zM197 -17h-78l425 730h79zM154 275v313l-46 -35l-46 57l100 79h74v-414h-82z" />
    <glyph glyph-name="threequarters" unicode="&#xbe;" horiz-adv-x="826" 
d="M184 692q27 0 52.5 -6.5t45.5 -20t32 -36t12 -53.5q0 -29 -15.5 -52.5t-46.5 -33.5q35 -13 49.5 -38t14.5 -51q0 -33 -12.5 -58t-33 -41t-47.5 -24t-56 -8q-41 0 -75.5 11.5t-60.5 31.5l42 62q20 -15 44.5 -23t44.5 -8q31 0 51 13.5t20 39.5q0 25 -17.5 39.5t-41.5 14.5
h-58v69h58q20 0 39 13.5t19 40.5q0 12 -6 20.5t-16 14t-21.5 8t-23.5 2.5q-21 0 -45.5 -7t-44.5 -23l-39 60q26 20 61 31.5t75 11.5zM265 -17h-78l425 730h79zM741 59v-59h-79v59h-189v61l147 293h87l-141 -284h96v113h79v-113h41v-70h-41z" />
    <glyph glyph-name="questiondown" unicode="&#xbf;" horiz-adv-x="474" 
d="M257 -204q-43 0 -79.5 13.5t-63.5 37t-42 55.5t-15 70q0 45 21.5 82t47 71t47 66.5t21.5 70.5v36h107v-34q0 -30 -6 -53.5t-17 -44.5t-25.5 -41t-30.5 -41q-16 -20 -29 -44.5t-13 -53.5q0 -36 25 -61t69 -25q35 0 68.5 12t60.5 35q13 -21 26 -43t27 -43
q-45 -35 -94.5 -50t-104.5 -15zM314 430q0 -26 -18.5 -46.5t-48.5 -20.5q-32 0 -51.5 20.5t-19.5 46.5q0 29 18.5 50t51.5 21q31 0 49.5 -20.5t18.5 -50.5z" />
    <glyph glyph-name="Agrave" unicode="&#xc0;" horiz-adv-x="617" 
d="M437 149h-257l-49 -149h-121l241 689h116l241 -689h-124zM213 248h191l-41 129l-53 175h-4l-51 -168zM313 736l-185 99l70 76l158 -124z" />
    <glyph glyph-name="Aacute" unicode="&#xc1;" horiz-adv-x="617" 
d="M437 149h-257l-49 -149h-121l241 689h116l241 -689h-124zM213 248h191l-41 129l-53 175h-4l-51 -168zM249 787l168 130l60 -82l-190 -101z" />
    <glyph glyph-name="Acircumflex" unicode="&#xc2;" horiz-adv-x="617" 
d="M437 149h-257l-49 -149h-121l241 689h116l241 -689h-124zM213 248h191l-41 129l-53 175h-4l-51 -168zM308 819l-146 -84l-36 45l150 125h68l146 -124l-37 -46z" />
    <glyph glyph-name="Atilde" unicode="&#xc3;" horiz-adv-x="617" 
d="M437 149h-257l-49 -149h-121l241 689h116l241 -689h-124zM213 248h191l-41 129l-53 175h-4l-51 -168zM240 876q19 0 37.5 -7.5t36 -16.5t33 -16.5t27.5 -7.5q16 0 30.5 10.5t31.5 35.5l58 -34q-24 -51 -51.5 -73.5t-60.5 -22.5q-19 0 -37 7t-35 15t-33 15t-30 7
q-17 0 -31 -8t-34 -34l-58 34q23 47 52 71.5t64 24.5z" />
    <glyph glyph-name="Adieresis" unicode="&#xc4;" horiz-adv-x="617" 
d="M437 149h-257l-49 -149h-121l241 689h116l241 -689h-124zM213 248h191l-41 129l-53 175h-4l-51 -168zM349 811q0 24 17 41t41 17q25 0 41.5 -17t16.5 -41t-16.5 -41t-41.5 -17q-24 0 -41 17t-17 41zM153 811q0 24 17 41t40 17q25 0 42 -17t17 -41t-17 -41t-42 -17
q-23 0 -40 17t-17 41z" />
    <glyph glyph-name="Aring" unicode="&#xc5;" horiz-adv-x="617" 
d="M437 149h-257l-49 -149h-121l241 689h116l241 -689h-124zM213 248h191l-41 129l-53 175h-4l-51 -168zM358 818q0 20 -14.5 34t-35.5 14t-36 -14t-15 -34q0 -21 15 -35.5t36 -14.5t35.5 14.5t14.5 35.5zM197 818q0 22 9 41.5t24 33.5t35 22.5t43 8.5t43 -8.5t35 -22.5
t23.5 -33.5t8.5 -41.5q0 -23 -8.5 -42.5t-23.5 -34t-35 -23t-43 -8.5t-43 8.5t-35 23t-24 34t-9 42.5z" />
    <glyph glyph-name="AE" unicode="&#xc6;" horiz-adv-x="991" 
d="M491 0v183q-63 0 -125 0.5t-125 0.5l-114 -184h-126q109 174 217 344.5t217 344.5h523v-104h-353v-189h302v-102h-302v-192h353v-102h-467zM490 586q-49 -77 -97 -153.5t-96 -153.5q48 0 96.5 -0.5t97.5 -0.5v308h-1z" />
    <glyph glyph-name="Ccedilla" unicode="&#xc7;" horiz-adv-x="544" 
d="M457 542q-29 25 -68 37t-76 12q-26 0 -51.5 -8t-45.5 -25t-32.5 -44t-12.5 -65v-209q0 -38 12.5 -65t33 -44t45.5 -25t50 -8q37 0 75 10.5t72 37.5l54 -88q-34 -28 -84.5 -45.5t-107.5 -19.5q-3 -8 -5.5 -15.5t-4.5 -15.5q28 -2 47 -10.5t30.5 -21t16.5 -26.5t5 -27
q0 -15 -6.5 -30t-19.5 -28t-33.5 -21t-48.5 -8q-23 0 -50 4.5t-51 15.5q5 12 9.5 24t9.5 25q23 -9 41.5 -11.5t33.5 -2.5q20 0 33 9t13 25q0 13 -10 24t-33 11q-4 0 -7.5 -0.5t-8.5 -1.5l-34 18l20 66q-43 6 -81.5 23t-67.5 45t-46 66.5t-17 86.5v255q0 54 21.5 95.5t57 70
t81.5 43.5t95 15q57 0 109.5 -16t92.5 -49z" />
    <glyph glyph-name="Egrave" unicode="&#xc8;" horiz-adv-x="567" 
d="M61 689h467v-103h-353v-189h302v-103h-302v-192h353v-102h-467v689zM320 736l-185 99l70 76l158 -124z" />
    <glyph glyph-name="Eacute" unicode="&#xc9;" horiz-adv-x="567" 
d="M61 689h467v-103h-353v-189h302v-103h-302v-192h353v-102h-467v689zM227 787l168 130l60 -82l-190 -101z" />
    <glyph glyph-name="Ecircumflex" unicode="&#xca;" horiz-adv-x="567" 
d="M61 689h467v-103h-353v-189h302v-103h-302v-192h353v-102h-467v689zM300 819l-146 -84l-36 45l150 125h68l146 -124l-37 -46z" />
    <glyph glyph-name="Edieresis" unicode="&#xcb;" horiz-adv-x="567" 
d="M61 689h467v-103h-353v-189h302v-103h-302v-192h353v-102h-467v689zM334 810q0 24 17 41t42 17q24 0 41 -17t17 -41t-17 -41.5t-41 -17.5q-25 0 -42 17.5t-17 41.5zM138 810q0 24 17 41t41 17t41 -17t17 -41t-17 -41.5t-41 -17.5t-41 17.5t-17 41.5z" />
    <glyph glyph-name="Igrave" unicode="&#xcc;" horiz-adv-x="274" 
d="M194 689v-689h-114v689h114zM140 736l-185 99l70 76l158 -124z" />
    <glyph glyph-name="Iacute" unicode="&#xcd;" horiz-adv-x="274" 
d="M194 689v-689h-114v689h114zM92 787l168 130l60 -82l-190 -101z" />
    <glyph glyph-name="Icircumflex" unicode="&#xce;" horiz-adv-x="274" 
d="M194 689v-689h-114v689h114zM135 819l-146 -84l-36 45l150 125h68l146 -124l-37 -46z" />
    <glyph glyph-name="Idieresis" unicode="&#xcf;" horiz-adv-x="274" 
d="M194 689v-689h-114v689h114zM179 811q0 24 17 41t41 17q25 0 41.5 -17t16.5 -41t-16.5 -41t-41.5 -17q-24 0 -41 17t-17 41zM-17 811q0 24 17 41t40 17q25 0 42 -17t17 -41t-17 -41t-42 -17q-23 0 -40 17t-17 41z" />
    <glyph glyph-name="Eth" unicode="&#xd0;" horiz-adv-x="611" 
d="M6 390h53v299h260q48 0 91.5 -14.5t76.5 -43t52.5 -70t19.5 -95.5v-243q0 -53 -19.5 -94t-53 -70t-77 -44t-91.5 -15h-259v309h-53v81zM443 445q0 39 -12.5 66t-33.5 43.5t-47 24t-53 7.5h-124v-196h115v-81h-115v-208h124q25 0 51 7.5t47 24t34.5 43.5t13.5 66v203z" />
    <glyph glyph-name="Ntilde" unicode="&#xd1;" horiz-adv-x="660" 
d="M173 473v-473h-114v689h106l205 -305l111 -171h6v476h114v-689h-107l-208 310l-106 163h-7zM262 876q19 0 37.5 -7.5t36 -16.5t33 -16.5t27.5 -7.5q16 0 30.5 10.5t31.5 35.5l58 -34q-24 -51 -51.5 -73.5t-60.5 -22.5q-19 0 -37 7t-35 15t-33 15t-30 7q-17 0 -31 -8
t-34 -34l-58 34q23 47 52 71.5t64 24.5z" />
    <glyph glyph-name="Ograve" unicode="&#xd2;" horiz-adv-x="625" 
d="M572 223q0 -54 -20 -97t-55.5 -72.5t-83 -45t-101.5 -15.5q-55 0 -102.5 15.5t-82 45t-54.5 72.5t-20 97v245q0 54 20.5 96t55.5 71.5t82 45t101 15.5q53 0 100.5 -16t83 -45.5t56 -72t20.5 -96.5v-243zM457 449q0 37 -12 64t-32 44.5t-46.5 25.5t-54.5 8q-29 0 -55 -8
t-45.5 -25.5t-31.5 -44.5t-12 -64v-209q0 -38 12 -65t32 -44t46 -25t54 -8t54.5 8t46.5 25t32 44t12 65v209zM342 736l-185 99l70 76l158 -124z" />
    <glyph glyph-name="Oacute" unicode="&#xd3;" horiz-adv-x="625" 
d="M572 223q0 -54 -20 -97t-55.5 -72.5t-83 -45t-101.5 -15.5q-55 0 -102.5 15.5t-82 45t-54.5 72.5t-20 97v245q0 54 20.5 96t55.5 71.5t82 45t101 15.5q53 0 100.5 -16t83 -45.5t56 -72t20.5 -96.5v-243zM457 449q0 37 -12 64t-32 44.5t-46.5 25.5t-54.5 8q-29 0 -55 -8
t-45.5 -25.5t-31.5 -44.5t-12 -64v-209q0 -38 12 -65t32 -44t46 -25t54 -8t54.5 8t46.5 25t32 44t12 65v209zM245 787l168 130l60 -82l-190 -101z" />
    <glyph glyph-name="Ocircumflex" unicode="&#xd4;" horiz-adv-x="625" 
d="M572 223q0 -54 -20 -97t-55.5 -72.5t-83 -45t-101.5 -15.5q-55 0 -102.5 15.5t-82 45t-54.5 72.5t-20 97v245q0 54 20.5 96t55.5 71.5t82 45t101 15.5q53 0 100.5 -16t83 -45.5t56 -72t20.5 -96.5v-243zM457 449q0 37 -12 64t-32 44.5t-46.5 25.5t-54.5 8q-29 0 -55 -8
t-45.5 -25.5t-31.5 -44.5t-12 -64v-209q0 -38 12 -65t32 -44t46 -25t54 -8t54.5 8t46.5 25t32 44t12 65v209zM314 819l-146 -84l-36 45l150 125h68l146 -124l-37 -46z" />
    <glyph glyph-name="Otilde" unicode="&#xd5;" horiz-adv-x="625" 
d="M572 223q0 -54 -20 -97t-55.5 -72.5t-83 -45t-101.5 -15.5q-55 0 -102.5 15.5t-82 45t-54.5 72.5t-20 97v245q0 54 20.5 96t55.5 71.5t82 45t101 15.5q53 0 100.5 -16t83 -45.5t56 -72t20.5 -96.5v-243zM457 449q0 37 -12 64t-32 44.5t-46.5 25.5t-54.5 8q-29 0 -55 -8
t-45.5 -25.5t-31.5 -44.5t-12 -64v-209q0 -38 12 -65t32 -44t46 -25t54 -8t54.5 8t46.5 25t32 44t12 65v209zM246 876q19 0 37.5 -7.5t36 -16.5t33 -16.5t27.5 -7.5q16 0 30.5 10.5t31.5 35.5l58 -34q-24 -51 -51.5 -73.5t-60.5 -22.5q-19 0 -37 7t-35 15t-33 15t-30 7
q-17 0 -31 -8t-34 -34l-58 34q23 47 52 71.5t64 24.5z" />
    <glyph glyph-name="Odieresis" unicode="&#xd6;" horiz-adv-x="625" 
d="M572 223q0 -54 -20 -97t-55.5 -72.5t-83 -45t-101.5 -15.5q-55 0 -102.5 15.5t-82 45t-54.5 72.5t-20 97v245q0 54 20.5 96t55.5 71.5t82 45t101 15.5q53 0 100.5 -16t83 -45.5t56 -72t20.5 -96.5v-243zM457 449q0 37 -12 64t-32 44.5t-46.5 25.5t-54.5 8q-29 0 -55 -8
t-45.5 -25.5t-31.5 -44.5t-12 -64v-209q0 -38 12 -65t32 -44t46 -25t54 -8t54.5 8t46.5 25t32 44t12 65v209zM355 811q0 24 17 41t41 17q25 0 41.5 -17t16.5 -41t-16.5 -41t-41.5 -17q-24 0 -41 17t-17 41zM159 811q0 24 17 41t40 17q25 0 42 -17t17 -41t-17 -41t-42 -17
q-23 0 -40 17t-17 41z" />
    <glyph glyph-name="multiply" unicode="&#xd7;" horiz-adv-x="517" 
d="M258 224l-161 -162l-59 59l161 162l-164 164l58 57l164 -164l159 160l59 -59l-160 -160l165 -165l-57 -57z" />
    <glyph glyph-name="Oslash" unicode="&#xd8;" horiz-adv-x="625" 
d="M52 24l44 62q-43 55 -43 137v245q0 54 20.5 96t55.5 71.5t82 45t101 15.5q51 0 95.5 -14.5t79.5 -40.5l40 56l46 -31l-46 -65q21 -27 33 -61t12 -74v-243q0 -54 -20 -97t-55.5 -72.5t-83 -45t-101.5 -15.5q-106 0 -177 54l-38 -54zM457 449q0 25 -6 45l-250 -353
q20 -23 49.5 -33t61.5 -10q28 0 54.5 8t46.5 25t32 44t12 65v209zM168 240q0 -13 1 -23.5t4 -21.5l249 353q-20 23 -49 33t-61 10q-29 0 -55 -8t-45.5 -25.5t-31.5 -44.5t-12 -64v-209z" />
    <glyph glyph-name="Ugrave" unicode="&#xd9;" horiz-adv-x="627" 
d="M574 218q0 -54 -21.5 -96t-57.5 -70.5t-83 -43.5t-98 -15q-52 0 -99 14.5t-82.5 43t-56.5 70.5t-21 96v472h114v-451q0 -38 12 -64.5t32.5 -43.5t46.5 -25t54 -8q27 0 53.5 8t46.5 25t32.5 43.5t12.5 64.5v451h115v-471zM339 736l-185 99l70 76l158 -124z" />
    <glyph glyph-name="Uacute" unicode="&#xda;" horiz-adv-x="627" 
d="M574 218q0 -54 -21.5 -96t-57.5 -70.5t-83 -43.5t-98 -15q-52 0 -99 14.5t-82.5 43t-56.5 70.5t-21 96v472h114v-451q0 -38 12 -64.5t32.5 -43.5t46.5 -25t54 -8q27 0 53.5 8t46.5 25t32.5 43.5t12.5 64.5v451h115v-471zM240 787l168 130l60 -82l-190 -101z" />
    <glyph glyph-name="Ucircumflex" unicode="&#xdb;" horiz-adv-x="627" 
d="M574 218q0 -54 -21.5 -96t-57.5 -70.5t-83 -43.5t-98 -15q-52 0 -99 14.5t-82.5 43t-56.5 70.5t-21 96v472h114v-451q0 -38 12 -64.5t32.5 -43.5t46.5 -25t54 -8q27 0 53.5 8t46.5 25t32.5 43.5t12.5 64.5v451h115v-471zM312 819l-146 -84l-36 45l150 125h68l146 -124
l-37 -46z" />
    <glyph glyph-name="Udieresis" unicode="&#xdc;" horiz-adv-x="627" 
d="M574 218q0 -54 -21.5 -96t-57.5 -70.5t-83 -43.5t-98 -15q-52 0 -99 14.5t-82.5 43t-56.5 70.5t-21 96v472h114v-451q0 -38 12 -64.5t32.5 -43.5t46.5 -25t54 -8q27 0 53.5 8t46.5 25t32.5 43.5t12.5 64.5v451h115v-471zM357 811q0 24 17 41t41 17q25 0 41.5 -17
t16.5 -41t-16.5 -41t-41.5 -17q-24 0 -41 17t-17 41zM161 811q0 24 17 41t40 17q25 0 42 -17t17 -41t-17 -41t-42 -17q-23 0 -40 17t-17 41z" />
    <glyph glyph-name="Yacute" unicode="&#xdd;" horiz-adv-x="556" 
d="M282 382l66 150l74 157h122l-208 -422v-267h-115v267l-210 422h124l75 -161l65 -146h7zM202 787l168 130l60 -82l-190 -101z" />
    <glyph glyph-name="Thorn" unicode="&#xde;" horiz-adv-x="565" 
d="M170 248h158q50 0 79.5 29t29.5 77t-29.5 78t-79.5 30h-158v-214zM170 689v-124h183q50 0 87 -19t61 -49.5t36 -68t12 -74.5t-13.5 -74.5t-39 -67.5t-62 -49t-83.5 -19h-181v-144h-114v689h114z" />
    <glyph glyph-name="germandbls" unicode="&#xdf;" horiz-adv-x="514" 
d="M156 0h-106v511q0 46 14.5 83.5t41 64t63.5 41t82 14.5q55 0 92.5 -16.5t60.5 -42t33 -56.5t10 -59q0 -14 -3.5 -32t-11 -36t-20 -34t-30.5 -27q23 -8 40 -23.5t27.5 -35.5t15.5 -43t5 -46l1 -91q0 -83 -45.5 -130.5t-123.5 -47.5q-11 0 -25 0.5t-29 2.5l2 96h33
q24 0 40 7.5t25 21t12.5 30.5t3.5 37v75q0 44 -27.5 67t-69.5 23h-9v85h5q22 0 38 9.5t26.5 24t15.5 30.5t5 30q0 17 -5.5 34t-17.5 30t-30 21t-43 8q-27 0 -45.5 -9t-30 -23.5t-16.5 -32t-5 -34.5z" />
    <glyph glyph-name="agrave" unicode="&#xe0;" horiz-adv-x="510" 
d="M354 45q-53 -30 -89.5 -39.5t-67.5 -9.5q-74 0 -116 40t-42 110q0 41 18 69t45 45.5t58.5 25.5t58.5 8h137v30q0 44 -25 63t-77 19q-25 0 -61.5 -7.5t-73.5 -37.5l-49 79q50 38 100.5 49.5t93.5 11.5q102 0 150 -45t48 -137v-319h-96l-9 43zM356 212h-119q-14 0 -29 -2
t-27.5 -8.5t-21 -18.5t-8.5 -33q0 -28 20 -43.5t53 -15.5q18 0 36 4.5t35.5 11t33 14.5t27.5 15v76zM253 546l-115 177l98 32l79 -183z" />
    <glyph glyph-name="aacute" unicode="&#xe1;" horiz-adv-x="510" 
d="M354 45q-53 -30 -89.5 -39.5t-67.5 -9.5q-74 0 -116 40t-42 110q0 41 18 69t45 45.5t58.5 25.5t58.5 8h137v30q0 44 -25 63t-77 19q-25 0 -61.5 -7.5t-73.5 -37.5l-49 79q50 38 100.5 49.5t93.5 11.5q102 0 150 -45t48 -137v-319h-96l-9 43zM356 212h-119q-14 0 -29 -2
t-27.5 -8.5t-21 -18.5t-8.5 -33q0 -28 20 -43.5t53 -15.5q18 0 36 4.5t35.5 11t33 14.5t27.5 15v76zM233 570l76 185l98 -31l-111 -178z" />
    <glyph glyph-name="acircumflex" unicode="&#xe2;" horiz-adv-x="510" 
d="M354 45q-53 -30 -89.5 -39.5t-67.5 -9.5q-74 0 -116 40t-42 110q0 41 18 69t45 45.5t58.5 25.5t58.5 8h137v30q0 44 -25 63t-77 19q-25 0 -61.5 -7.5t-73.5 -37.5l-49 79q50 38 100.5 49.5t93.5 11.5q102 0 150 -45t48 -137v-319h-96l-9 43zM356 212h-119q-14 0 -29 -2
t-27.5 -8.5t-21 -18.5t-8.5 -33q0 -28 20 -43.5t53 -15.5q18 0 36 4.5t35.5 11t33 14.5t27.5 15v76zM261 648q-6 -4 -26 -19.5t-43 -33.5t-43 -33.5t-26 -19.5l-44 41l149 154h70l145 -152l-46 -43z" />
    <glyph glyph-name="atilde" unicode="&#xe3;" horiz-adv-x="510" 
d="M354 45q-53 -30 -89.5 -39.5t-67.5 -9.5q-74 0 -116 40t-42 110q0 41 18 69t45 45.5t58.5 25.5t58.5 8h137v30q0 44 -25 63t-77 19q-25 0 -61.5 -7.5t-73.5 -37.5l-49 79q50 38 100.5 49.5t93.5 11.5q102 0 150 -45t48 -137v-319h-96l-9 43zM356 212h-119q-14 0 -29 -2
t-27.5 -8.5t-21 -18.5t-8.5 -33q0 -28 20 -43.5t53 -15.5q18 0 36 4.5t35.5 11t33 14.5t27.5 15v76zM195 706q19 0 37.5 -7.5t36 -16.5t33 -16.5t27.5 -7.5q16 0 30.5 10.5t31.5 35.5l58 -34q-24 -51 -51.5 -73.5t-60.5 -22.5q-19 0 -37 7t-35 15t-33 15t-30 7q-17 0 -31 -8
t-34 -34l-58 34q23 47 52 71.5t64 24.5z" />
    <glyph glyph-name="adieresis" unicode="&#xe4;" horiz-adv-x="510" 
d="M354 45q-53 -30 -89.5 -39.5t-67.5 -9.5q-74 0 -116 40t-42 110q0 41 18 69t45 45.5t58.5 25.5t58.5 8h137v30q0 44 -25 63t-77 19q-25 0 -61.5 -7.5t-73.5 -37.5l-49 79q50 38 100.5 49.5t93.5 11.5q102 0 150 -45t48 -137v-319h-96l-9 43zM356 212h-119q-14 0 -29 -2
t-27.5 -8.5t-21 -18.5t-8.5 -33q0 -28 20 -43.5t53 -15.5q18 0 36 4.5t35.5 11t33 14.5t27.5 15v76zM311 632q0 24 17 41t41 17q25 0 42 -17t17 -41t-17 -41t-42 -17q-24 0 -41 17t-17 41zM115 632q0 24 17 41t40 17q25 0 42 -17t17 -41t-17 -41t-42 -17q-23 0 -40 17
t-17 41z" />
    <glyph glyph-name="aring" unicode="&#xe5;" horiz-adv-x="510" 
d="M354 45q-53 -30 -89.5 -39.5t-67.5 -9.5q-74 0 -116 40t-42 110q0 41 18 69t45 45.5t58.5 25.5t58.5 8h137v30q0 44 -25 63t-77 19q-25 0 -61.5 -7.5t-73.5 -37.5l-49 79q50 38 100.5 49.5t93.5 11.5q102 0 150 -45t48 -137v-319h-96l-9 43zM356 212h-119q-14 0 -29 -2
t-27.5 -8.5t-21 -18.5t-8.5 -33q0 -28 20 -43.5t53 -15.5q18 0 36 4.5t35.5 11t33 14.5t27.5 15v76zM323 644q0 20 -14.5 34t-35.5 14t-36 -14t-15 -34q0 -21 15 -35.5t36 -14.5t35.5 14.5t14.5 35.5zM162 644q0 22 9 41.5t24 33.5t35 22.5t43 8.5t43 -8.5t35 -22.5
t23.5 -33.5t8.5 -41.5q0 -23 -8.5 -42.5t-23.5 -34t-35 -23t-43 -8.5t-43 8.5t-35 23t-24 34t-9 42.5z" />
    <glyph glyph-name="ae" unicode="&#xe6;" horiz-adv-x="805" 
d="M462 216v-29q0 -26 9 -44t24 -29.5t34.5 -17t40.5 -5.5q23 0 55 8t65 37l62 -73q-42 -41 -88.5 -54.5t-93.5 -13.5q-54 0 -99.5 16.5t-74.5 51.5q-10 -6 -20 -12.5t-20 -11.5q-57 -29 -94.5 -36t-63.5 -7q-74 0 -116.5 40t-42.5 109q0 41 18 69t45 45.5t58.5 25.5t58.5 8
h137v30q0 46 -29.5 64t-78.5 18q-25 0 -58.5 -7.5t-70.5 -37.5l-50 79q50 38 97 49.5t90 11.5q107 0 159 -54q27 26 64.5 40t82.5 14t83 -13t65 -37.5t42.5 -59.5t15.5 -80v-94h-306zM356 216h-117q-14 0 -29.5 -2.5t-28.5 -10t-21.5 -20.5t-8.5 -34q0 -28 20 -43t53 -15
q18 0 36 4.5t35.5 11t33 14.5t27.5 15v80zM661 304q0 52 -29 75.5t-70 23.5q-39 0 -69 -24.5t-30 -72.5v-14h198v12z" />
    <glyph glyph-name="ccedilla" unicode="&#xe7;" horiz-adv-x="441" 
d="M422 62q-38 -38 -79.5 -51.5t-84.5 -15.5l-10 -33q28 -2 47 -10.5t30.5 -21t16.5 -26.5t5 -27q0 -15 -6.5 -30t-19.5 -28t-33.5 -21t-48.5 -8q-23 0 -50 4.5t-51 15.5q5 12 9.5 24t9.5 25q23 -9 41.5 -11.5t33.5 -2.5q20 0 33 9t13 25q0 13 -10 24t-33 11q-4 0 -7.5 -0.5
t-8.5 -1.5l-34 18l21 68q-70 11 -115 56t-45 118v147q0 44 17 78t45 57t64 35t74 12q22 0 45 -2.5t45.5 -9t44 -19t41.5 -33.5l-62 -79q-34 31 -60.5 38t-46.5 7q-17 0 -35 -5.5t-32.5 -17.5t-24 -31.5t-9.5 -47.5v-106q0 -28 8.5 -47.5t22.5 -31.5t32 -17.5t37 -5.5
q21 0 51 9.5t54 32.5z" />
    <glyph glyph-name="egrave" unicode="&#xe8;" horiz-adv-x="495" 
d="M152 213v-25q0 -26 9 -44.5t23.5 -30t34 -17t40.5 -5.5q23 0 55.5 8t64.5 37q16 -19 31.5 -36.5t30.5 -36.5q-42 -41 -88.5 -54.5t-93.5 -13.5q-43 0 -81.5 11t-68 33.5t-46.5 56.5t-17 80v130q0 45 15.5 81t43.5 61t65 38.5t81 13.5q45 0 83 -13t65.5 -37.5t42.5 -59.5
t15 -80v-97h-305zM350 304q0 52 -29 75.5t-69 23.5t-69.5 -24.5t-29.5 -73.5v-16h197v15zM244 546l-115 177l98 32l79 -183z" />
    <glyph glyph-name="eacute" unicode="&#xe9;" horiz-adv-x="495" 
d="M152 213v-25q0 -26 9 -44.5t23.5 -30t34 -17t40.5 -5.5q23 0 55.5 8t64.5 37q16 -19 31.5 -36.5t30.5 -36.5q-42 -41 -88.5 -54.5t-93.5 -13.5q-43 0 -81.5 11t-68 33.5t-46.5 56.5t-17 80v130q0 45 15.5 81t43.5 61t65 38.5t81 13.5q45 0 83 -13t65.5 -37.5t42.5 -59.5
t15 -80v-97h-305zM350 304q0 52 -29 75.5t-69 23.5t-69.5 -24.5t-29.5 -73.5v-16h197v15zM203 570l76 185l98 -31l-111 -178z" />
    <glyph glyph-name="ecircumflex" unicode="&#xea;" horiz-adv-x="495" 
d="M152 213v-25q0 -26 9 -44.5t23.5 -30t34 -17t40.5 -5.5q23 0 55.5 8t64.5 37q16 -19 31.5 -36.5t30.5 -36.5q-42 -41 -88.5 -54.5t-93.5 -13.5q-43 0 -81.5 11t-68 33.5t-46.5 56.5t-17 80v130q0 45 15.5 81t43.5 61t65 38.5t81 13.5q45 0 83 -13t65.5 -37.5t42.5 -59.5
t15 -80v-97h-305zM350 304q0 52 -29 75.5t-69 23.5t-69.5 -24.5t-29.5 -73.5v-16h197v15zM256 648q-6 -4 -26 -19.5t-43 -33.5t-43 -33.5t-26 -19.5l-44 41l149 154h70l145 -152l-46 -43z" />
    <glyph glyph-name="edieresis" unicode="&#xeb;" horiz-adv-x="495" 
d="M152 213v-25q0 -26 9 -44.5t23.5 -30t34 -17t40.5 -5.5q23 0 55.5 8t64.5 37q16 -19 31.5 -36.5t30.5 -36.5q-42 -41 -88.5 -54.5t-93.5 -13.5q-43 0 -81.5 11t-68 33.5t-46.5 56.5t-17 80v130q0 45 15.5 81t43.5 61t65 38.5t81 13.5q45 0 83 -13t65.5 -37.5t42.5 -59.5
t15 -80v-97h-305zM350 304q0 52 -29 75.5t-69 23.5t-69.5 -24.5t-29.5 -73.5v-16h197v15zM294 632q0 24 17 41t41 17q25 0 42 -17t17 -41t-17 -41t-42 -17q-24 0 -41 17t-17 41zM98 632q0 24 17 41t40 17q25 0 42 -17t17 -41t-17 -41t-42 -17q-23 0 -40 17t-17 41z" />
    <glyph glyph-name="igrave" unicode="&#xec;" horiz-adv-x="249" 
d="M101 546l-116 177l99 32l79 -183zM74 0v495h106v-495h-106z" />
    <glyph glyph-name="iacute" unicode="&#xed;" horiz-adv-x="249" 
d="M85 570l77 185l98 -31l-112 -178zM74 0v495h106v-495h-106z" />
    <glyph glyph-name="icircumflex" unicode="&#xee;" horiz-adv-x="344" 
d="M172 648q-6 -4 -26 -19.5t-43 -33.5t-43 -33.5t-26 -19.5l-44 41l149 154h70l145 -152l-46 -43zM120 0v495h106v-495h-106z" />
    <glyph glyph-name="idieresis" unicode="&#xef;" horiz-adv-x="293" 
d="M186 632q0 24 17 41t42 17q24 0 41 -17t17 -41t-17 -41t-41 -17q-25 0 -42 17t-17 41zM-10 632q0 24 17 41t41 17t41 -17t17 -41t-17 -41t-41 -17t-41 17t-17 41zM94 0v495h106v-495h-106z" />
    <glyph glyph-name="eth" unicode="&#xf0;" horiz-adv-x="514" 
d="M277 505q-9 11 -18 22.5t-17 22.5q15 11 30.5 22.5t30.5 22.5q-17 16 -47 29.5t-79 21.5q5 21 9.5 42.5t9.5 42.5q57 -6 106 -25t78 -51q17 14 35.5 26.5t35.5 26.5l36 -46q-17 -12 -34 -25t-34 -25q18 -28 28 -55.5t15 -58.5t6 -67t1 -81v-107q0 -14 -0.5 -26.5
t-1.5 -25.5q-4 -88 -59 -142t-158 -54q-43 0 -80.5 11.5t-65 34t-43.5 56.5t-16 78v104q0 44 16.5 80t44 61.5t64.5 39.5t79 14q33 0 64.5 -9t53.5 -29q1 0 1.5 0.5t1.5 0.5q-2 36 -7.5 65.5t-20.5 50.5zM361 274q0 28 -9 47t-24 31t-33.5 17.5t-36.5 5.5q-21 0 -40.5 -6.5
t-34.5 -20t-23.5 -33.5t-8.5 -48v-72q0 -56 31 -79t74 -23q20 0 39 5.5t33.5 18t23.5 32t9 47.5v78z" />
    <glyph glyph-name="ntilde" unicode="&#xf1;" horiz-adv-x="513" 
d="M362 0v309q0 51 -22 70.5t-55 19.5q-27 0 -61 -13t-72 -37v-349h-106v495h96l10 -49q30 18 54.5 29t44 17t35 7.5t28.5 1.5q78 0 116.5 -47t38.5 -130v-324h-107zM185 706q19 0 37.5 -7.5t36 -16.5t33 -16.5t27.5 -7.5q16 0 30.5 10.5t31.5 35.5l58 -34
q-24 -51 -51.5 -73.5t-60.5 -22.5q-19 0 -37 7t-35 15t-33 15t-30 7q-17 0 -31 -8t-34 -34l-58 34q23 47 52 71.5t64 24.5z" />
    <glyph glyph-name="ograve" unicode="&#xf2;" horiz-adv-x="512" 
d="M466 175q0 -44 -17.5 -78t-47 -56.5t-67.5 -34t-79 -11.5q-42 0 -80.5 11.5t-67 34t-45.5 56.5t-17 78v144q0 44 17.5 78t46.5 57t67 35t80 12q45 0 83 -12t66.5 -35.5t44.5 -57.5t16 -78v-143zM361 300q0 28 -9.5 47.5t-24.5 31.5t-34 17.5t-37 5.5t-37 -5.5t-34 -17.5
t-24.5 -31.5t-9.5 -47.5v-105q0 -56 31 -79t74 -23q18 0 37 5.5t34 17.5t24.5 31.5t9.5 47.5v105zM255 546l-115 177l98 32l79 -183z" />
    <glyph glyph-name="oacute" unicode="&#xf3;" horiz-adv-x="512" 
d="M466 175q0 -44 -17.5 -78t-47 -56.5t-67.5 -34t-79 -11.5q-42 0 -80.5 11.5t-67 34t-45.5 56.5t-17 78v144q0 44 17.5 78t46.5 57t67 35t80 12q45 0 83 -12t66.5 -35.5t44.5 -57.5t16 -78v-143zM361 300q0 28 -9.5 47.5t-24.5 31.5t-34 17.5t-37 5.5t-37 -5.5t-34 -17.5
t-24.5 -31.5t-9.5 -47.5v-105q0 -56 31 -79t74 -23q18 0 37 5.5t34 17.5t24.5 31.5t9.5 47.5v105zM212 570l76 185l98 -31l-111 -178z" />
    <glyph glyph-name="ocircumflex" unicode="&#xf4;" horiz-adv-x="512" 
d="M466 175q0 -44 -17.5 -78t-47 -56.5t-67.5 -34t-79 -11.5q-42 0 -80.5 11.5t-67 34t-45.5 56.5t-17 78v144q0 44 17.5 78t46.5 57t67 35t80 12q45 0 83 -12t66.5 -35.5t44.5 -57.5t16 -78v-143zM361 300q0 28 -9.5 47.5t-24.5 31.5t-34 17.5t-37 5.5t-37 -5.5t-34 -17.5
t-24.5 -31.5t-9.5 -47.5v-105q0 -56 31 -79t74 -23q18 0 37 5.5t34 17.5t24.5 31.5t9.5 47.5v105zM258 648q-6 -4 -26 -19.5t-43 -33.5t-43 -33.5t-26 -19.5l-44 41l149 154h70l145 -152l-46 -43z" />
    <glyph glyph-name="otilde" unicode="&#xf5;" horiz-adv-x="512" 
d="M466 175q0 -44 -17.5 -78t-47 -56.5t-67.5 -34t-79 -11.5q-42 0 -80.5 11.5t-67 34t-45.5 56.5t-17 78v144q0 44 17.5 78t46.5 57t67 35t80 12q45 0 83 -12t66.5 -35.5t44.5 -57.5t16 -78v-143zM361 300q0 28 -9.5 47.5t-24.5 31.5t-34 17.5t-37 5.5t-37 -5.5t-34 -17.5
t-24.5 -31.5t-9.5 -47.5v-105q0 -56 31 -79t74 -23q18 0 37 5.5t34 17.5t24.5 31.5t9.5 47.5v105zM196 706q19 0 37.5 -7.5t36 -16.5t33 -16.5t27.5 -7.5q16 0 30.5 10.5t31.5 35.5l58 -34q-24 -51 -51.5 -73.5t-60.5 -22.5q-19 0 -37 7t-35 15t-33 15t-30 7q-17 0 -31 -8
t-34 -34l-58 34q23 47 52 71.5t64 24.5z" />
    <glyph glyph-name="odieresis" unicode="&#xf6;" horiz-adv-x="512" 
d="M466 175q0 -44 -17.5 -78t-47 -56.5t-67.5 -34t-79 -11.5q-42 0 -80.5 11.5t-67 34t-45.5 56.5t-17 78v144q0 44 17.5 78t46.5 57t67 35t80 12q45 0 83 -12t66.5 -35.5t44.5 -57.5t16 -78v-143zM361 300q0 28 -9.5 47.5t-24.5 31.5t-34 17.5t-37 5.5t-37 -5.5t-34 -17.5
t-24.5 -31.5t-9.5 -47.5v-105q0 -56 31 -79t74 -23q18 0 37 5.5t34 17.5t24.5 31.5t9.5 47.5v105zM299 632q0 24 17 41t41 17q25 0 42 -17t17 -41t-17 -41t-42 -17q-24 0 -41 17t-17 41zM103 632q0 24 17 41t40 17q25 0 42 -17t17 -41t-17 -41t-42 -17q-23 0 -40 17t-17 41z
" />
    <glyph glyph-name="divide" unicode="&#xf7;" horiz-adv-x="517" 
d="M328 484q0 -27 -19.5 -46.5t-47.5 -19.5q-29 0 -48.5 19.5t-19.5 46.5t19.5 46t48.5 19q28 0 47.5 -19t19.5 -46zM25 255v80h471v-80h-471zM328 104q0 -28 -19.5 -46.5t-47.5 -18.5q-29 0 -48.5 18.5t-19.5 46.5q0 27 19.5 46t48.5 19q28 0 47.5 -19t19.5 -46z" />
    <glyph glyph-name="oslash" unicode="&#xf8;" horiz-adv-x="512" 
d="M466 175q0 -44 -17.5 -78t-47 -56.5t-67.5 -34t-79 -11.5t-77 10.5t-64 30.5l-35 -43l-35 29l36 45q-17 21 -26 48t-9 60v144q0 44 17.5 78t46.5 57t67 35t80 12q85 0 141 -41l33 41l36 -28l-36 -45q36 -45 36 -110v-143zM361 300q0 19 -5 36l-176 -218
q14 -14 33.5 -19.5t42.5 -5.5q18 0 37 5.5t34 17.5t24.5 31.5t9.5 47.5v105zM330 376q-16 14 -35.5 20t-38.5 6q-18 0 -37 -5.5t-34 -17.5t-24.5 -31.5t-9.5 -47.5v-105q0 -22 4 -35z" />
    <glyph glyph-name="ugrave" unicode="&#xf9;" horiz-adv-x="516" 
d="M151 495v-310q0 -50 23 -70t55 -20q55 0 132 54v346h107v-495h-97l-10 48q-58 -35 -93.5 -44.5t-60.5 -9.5q-81 0 -122 49.5t-41 132.5v319h107zM252 546l-115 177l98 32l79 -183z" />
    <glyph glyph-name="uacute" unicode="&#xfa;" horiz-adv-x="516" 
d="M151 495v-310q0 -50 23 -70t55 -20q55 0 132 54v346h107v-495h-97l-10 48q-58 -35 -93.5 -44.5t-60.5 -9.5q-81 0 -122 49.5t-41 132.5v319h107zM207 570l76 185l98 -31l-111 -178z" />
    <glyph glyph-name="ucircumflex" unicode="&#xfb;" horiz-adv-x="516" 
d="M151 495v-310q0 -50 23 -70t55 -20q55 0 132 54v346h107v-495h-97l-10 48q-58 -35 -93.5 -44.5t-60.5 -9.5q-81 0 -122 49.5t-41 132.5v319h107zM256 648q-6 -4 -26 -19.5t-43 -33.5t-43 -33.5t-26 -19.5l-44 41l149 154h70l145 -152l-46 -43z" />
    <glyph glyph-name="udieresis" unicode="&#xfc;" horiz-adv-x="516" 
d="M151 495v-310q0 -50 23 -70t55 -20q55 0 132 54v346h107v-495h-97l-10 48q-58 -35 -93.5 -44.5t-60.5 -9.5q-81 0 -122 49.5t-41 132.5v319h107zM294 632q0 24 17 41t41 17q25 0 42 -17t17 -41t-17 -41t-42 -17q-24 0 -41 17t-17 41zM98 632q0 24 17 41t40 17
q25 0 42 -17t17 -41t-17 -41t-42 -17q-23 0 -40 17t-17 41z" />
    <glyph glyph-name="yacute" unicode="&#xfd;" horiz-adv-x="472" 
d="M106 -200l75 210l-36 29l-135 457h112l53 -203l49 -181h3l63 182l67 202h112l-253 -696h-110zM186 570l76 185l98 -31l-111 -178z" />
    <glyph glyph-name="thorn" unicode="&#xfe;" horiz-adv-x="509" 
d="M469 172q0 -83 -45.5 -130.5t-128.5 -47.5q-26 0 -62 5t-79 25v-222h-106v887h106v-243q48 31 85.5 42.5t63.5 11.5q77 0 121.5 -43.5t44.5 -135.5v-149zM362 312q0 50 -21.5 68.5t-54.5 18.5q-13 0 -29.5 -4t-34.5 -11t-35.5 -16t-32.5 -19v-226q40 -17 68.5 -23
t55.5 -6q17 0 32.5 4t27 14.5t18 27.5t6.5 42v130z" />
    <glyph glyph-name="ydieresis" unicode="&#xff;" horiz-adv-x="472" 
d="M106 -200l75 210l-36 29l-135 457h112l53 -203l49 -181h3l63 182l67 202h112l-253 -696h-110zM277 632q0 24 17 41t41 17q25 0 42 -17t17 -41t-17 -41t-42 -17q-24 0 -41 17t-17 41zM81 632q0 24 17 41t40 17q25 0 42 -17t17 -41t-17 -41t-42 -17q-23 0 -40 17t-17 41z
" />
    <glyph glyph-name="Amacron" unicode="&#x100;" horiz-adv-x="617" 
d="M437 149h-257l-49 -149h-121l241 689h116l241 -689h-124zM213 248h191l-41 129l-53 175h-4l-51 -168zM163 773v89h289v-89h-289z" />
    <glyph glyph-name="amacron" unicode="&#x101;" horiz-adv-x="510" 
d="M354 45q-53 -30 -89.5 -39.5t-67.5 -9.5q-74 0 -116 40t-42 110q0 41 18 69t45 45.5t58.5 25.5t58.5 8h137v30q0 44 -25 63t-77 19q-25 0 -61.5 -7.5t-73.5 -37.5l-49 79q50 38 100.5 49.5t93.5 11.5q102 0 150 -45t48 -137v-319h-96l-9 43zM356 212h-119q-14 0 -29 -2
t-27.5 -8.5t-21 -18.5t-8.5 -33q0 -28 20 -43.5t53 -15.5q18 0 36 4.5t35.5 11t33 14.5t27.5 15v76zM121 593v89h290v-89h-290z" />
    <glyph glyph-name="Abreve" unicode="&#x102;" horiz-adv-x="617" 
d="M437 149h-257l-49 -149h-121l241 689h116l241 -689h-124zM213 248h191l-41 129l-53 175h-4l-51 -168zM309 731q-42 0 -69.5 14t-45 35t-25 45.5t-8.5 45.5h82q1 -10 5.5 -21.5t13 -21t20.5 -16t27 -6.5q17 0 29.5 6.5t21 16t12.5 21t4 21.5h81q-2 -21 -10 -45.5
t-24.5 -45.5t-44 -35t-69.5 -14z" />
    <glyph glyph-name="abreve" unicode="&#x103;" horiz-adv-x="510" 
d="M354 45q-53 -30 -89.5 -39.5t-67.5 -9.5q-74 0 -116 40t-42 110q0 41 18 69t45 45.5t58.5 25.5t58.5 8h137v30q0 44 -25 63t-77 19q-25 0 -61.5 -7.5t-73.5 -37.5l-49 79q50 38 100.5 49.5t93.5 11.5q102 0 150 -45t48 -137v-319h-96l-9 43zM356 212h-119q-14 0 -29 -2
t-27.5 -8.5t-21 -18.5t-8.5 -33q0 -28 20 -43.5t53 -15.5q18 0 36 4.5t35.5 11t33 14.5t27.5 15v76zM274 566q-42 0 -69.5 14t-45 35t-25 45t-8.5 45h82q1 -10 5.5 -21t13 -20.5t20.5 -16t27 -6.5q17 0 29.5 6.5t21 16t12.5 20.5t4 21h81q-2 -21 -10 -45t-24.5 -45t-44 -35
t-69.5 -14z" />
    <glyph glyph-name="Aogonek" unicode="&#x104;" horiz-adv-x="617" 
d="M437 149h-257l-49 -149h-121l241 689h116l241 -689h-50q-19 -26 -27.5 -45t-8.5 -36q0 -38 42 -38q11 0 25 4.5t34 12.5l23 -58q-21 -12 -46.5 -19.5t-51.5 -7.5q-45 0 -72.5 26.5t-27.5 64.5q0 21 8 43.5t29 52.5h-1zM213 248h191l-41 129l-53 175h-4l-51 -168z" />
    <glyph glyph-name="aogonek" unicode="&#x105;" horiz-adv-x="510" 
d="M354 45q-53 -30 -89.5 -39.5t-67.5 -9.5q-74 0 -116 40t-42 110q0 41 18 69t45 45.5t58.5 25.5t58.5 8h137v30q0 44 -25 63t-77 19q-25 0 -61.5 -7.5t-73.5 -37.5l-49 79q50 38 100.5 49.5t93.5 11.5q102 0 150 -45t48 -137v-319h-25q-19 -26 -27.5 -45t-8.5 -36
q0 -38 42 -38q11 0 25 4.5t34 12.5l23 -58q-21 -12 -46.5 -19.5t-51.5 -7.5q-45 0 -72.5 26.5t-27.5 64.5q0 21 8 44t30 53l-8 42zM356 212h-119q-14 0 -29 -2t-27.5 -8.5t-21 -18.5t-8.5 -33q0 -28 20 -43.5t53 -15.5q18 0 36 4.5t35.5 11t33 14.5t27.5 15v76z" />
    <glyph glyph-name="Cacute" unicode="&#x106;" horiz-adv-x="544" 
d="M457 542q-29 25 -68 37t-76 12q-26 0 -51.5 -8t-45.5 -25t-32.5 -44t-12.5 -65v-209q0 -38 12.5 -65t33 -44t45.5 -25t50 -8q37 0 75 10.5t72 37.5l54 -88q-35 -29 -88 -47t-113 -18q-50 0 -96 14.5t-81.5 43t-57 70.5t-21.5 96v255q0 54 21.5 95.5t57 70t81.5 43.5
t95 15q57 0 109.5 -16t92.5 -49zM227 787l168 130l60 -82l-190 -101z" />
    <glyph glyph-name="cacute" unicode="&#x107;" horiz-adv-x="441" 
d="M422 62q-40 -41 -85 -54t-90 -13q-42 0 -79 12t-64 35t-42.5 55.5t-15.5 74.5v147q0 44 17 78t45 57t64 35t74 12q22 0 45 -2.5t45.5 -9t44 -19t41.5 -33.5l-62 -79q-34 31 -60.5 38t-46.5 7q-17 0 -35 -5.5t-32.5 -17.5t-24 -31.5t-9.5 -47.5v-106q0 -28 8.5 -47.5
t22.5 -31.5t32 -17.5t37 -5.5q21 0 51 9.5t54 32.5zM191 570l76 185l98 -31l-111 -178z" />
    <glyph glyph-name="Ccircumflex" unicode="&#x108;" horiz-adv-x="544" 
d="M457 542q-29 25 -68 37t-76 12q-26 0 -51.5 -8t-45.5 -25t-32.5 -44t-12.5 -65v-209q0 -38 12.5 -65t33 -44t45.5 -25t50 -8q37 0 75 10.5t72 37.5l54 -88q-35 -29 -88 -47t-113 -18q-50 0 -96 14.5t-81.5 43t-57 70.5t-21.5 96v255q0 54 21.5 95.5t57 70t81.5 43.5
t95 15q57 0 109.5 -16t92.5 -49zM309 819l-146 -84l-36 45l150 125h68l146 -124l-37 -46z" />
    <glyph glyph-name="ccircumflex" unicode="&#x109;" horiz-adv-x="441" 
d="M422 62q-40 -41 -85 -54t-90 -13q-42 0 -79 12t-64 35t-42.5 55.5t-15.5 74.5v147q0 44 17 78t45 57t64 35t74 12q22 0 45 -2.5t45.5 -9t44 -19t41.5 -33.5l-62 -79q-34 31 -60.5 38t-46.5 7q-17 0 -35 -5.5t-32.5 -17.5t-24 -31.5t-9.5 -47.5v-106q0 -28 8.5 -47.5
t22.5 -31.5t32 -17.5t37 -5.5q21 0 51 9.5t54 32.5zM246 648q-6 -4 -26 -19.5t-43 -33.5t-43 -33.5t-26 -19.5l-44 41l149 154h70l145 -152l-46 -43z" />
    <glyph glyph-name="Cdotaccent" unicode="&#x10a;" horiz-adv-x="544" 
d="M457 542q-29 25 -68 37t-76 12q-26 0 -51.5 -8t-45.5 -25t-32.5 -44t-12.5 -65v-209q0 -38 12.5 -65t33 -44t45.5 -25t50 -8q37 0 75 10.5t72 37.5l54 -88q-35 -29 -88 -47t-113 -18q-50 0 -96 14.5t-81.5 43t-57 70.5t-21.5 96v255q0 54 21.5 95.5t57 70t81.5 43.5
t95 15q57 0 109.5 -16t92.5 -49zM303 749q-29 0 -46 18.5t-17 46.5q0 24 17 43t45 19q29 0 47 -19t18 -43q0 -26 -17 -45.5t-47 -19.5z" />
    <glyph glyph-name="cdotaccent" unicode="&#x10b;" horiz-adv-x="441" 
d="M422 62q-40 -41 -85 -54t-90 -13q-42 0 -79 12t-64 35t-42.5 55.5t-15.5 74.5v147q0 44 17 78t45 57t64 35t74 12q22 0 45 -2.5t45.5 -9t44 -19t41.5 -33.5l-62 -79q-34 31 -60.5 38t-46.5 7q-17 0 -35 -5.5t-32.5 -17.5t-24 -31.5t-9.5 -47.5v-106q0 -28 8.5 -47.5
t22.5 -31.5t32 -17.5t37 -5.5q21 0 51 9.5t54 32.5zM247 576q-29 0 -46 18.5t-17 46.5q0 24 17 43t45 19q29 0 47 -19t18 -43q0 -26 -17 -45.5t-47 -19.5z" />
    <glyph glyph-name="Ccaron" unicode="&#x10c;" horiz-adv-x="544" 
d="M457 542q-29 25 -68 37t-76 12q-26 0 -51.5 -8t-45.5 -25t-32.5 -44t-12.5 -65v-209q0 -38 12.5 -65t33 -44t45.5 -25t50 -8q37 0 75 10.5t72 37.5l54 -88q-35 -29 -88 -47t-113 -18q-50 0 -96 14.5t-81.5 43t-57 70.5t-21.5 96v255q0 54 21.5 95.5t57 70t81.5 43.5
t95 15q57 0 109.5 -16t92.5 -49zM441 908l37 -46l-145 -124h-68l-150 126l35 44l146 -84z" />
    <glyph glyph-name="ccaron" unicode="&#x10d;" horiz-adv-x="441" 
d="M422 62q-40 -41 -85 -54t-90 -13q-42 0 -79 12t-64 35t-42.5 55.5t-15.5 74.5v147q0 44 17 78t45 57t64 35t74 12q22 0 45 -2.5t45.5 -9t44 -19t41.5 -33.5l-62 -79q-34 31 -60.5 38t-46.5 7q-17 0 -35 -5.5t-32.5 -17.5t-24 -31.5t-9.5 -47.5v-106q0 -28 8.5 -47.5
t22.5 -31.5t32 -17.5t37 -5.5q21 0 51 9.5t54 32.5zM380 737l46 -42l-145 -153h-70l-149 154l44 41q6 -4 26 -19t43 -33t43 -33.5t26 -19.5z" />
    <glyph glyph-name="Dcaron" unicode="&#x10e;" horiz-adv-x="611" 
d="M559 223q0 -53 -19.5 -94t-53 -70t-77 -44t-91.5 -15h-259v689h260q48 0 91.5 -14.5t76.5 -43t52.5 -70t19.5 -95.5v-243zM443 445q0 39 -12.5 66t-33.5 43.5t-47 24t-53 7.5h-124v-485h124q25 0 51 7.5t47 24t34.5 43.5t13.5 66v203zM421 908l37 -46l-145 -124h-68
l-150 126l35 44l146 -84z" />
    <glyph glyph-name="dcaron" unicode="&#x10f;" horiz-adv-x="637" 
d="M504 528q24 17 38 33t17 43q-22 2 -36 20t-14 44t19.5 46t48.5 20q39 0 57.5 -27t18.5 -62q0 -57 -32.5 -100t-80.5 -65zM45 323q0 83 47.5 130.5t125.5 47.5q26 0 62.5 -5.5t78.5 -22.5v243h106v-716h-96l-10 49q-51 -31 -86.5 -42.5t-61.5 -11.5q-77 0 -121.5 43.5
t-44.5 135.5v149zM151 182q0 -50 21.5 -68.5t54.5 -18.5q13 0 29.5 4t34.5 11t35.5 16t32.5 19v227q-35 14 -65.5 21.5t-58.5 7.5q-35 0 -59.5 -21t-24.5 -71v-127z" />
    <glyph glyph-name="Dcroat" unicode="&#x110;" horiz-adv-x="611" 
d="M6 390h53v299h260q48 0 91.5 -14.5t76.5 -43t52.5 -70t19.5 -95.5v-243q0 -53 -19.5 -94t-53 -70t-77 -44t-91.5 -15h-259v309h-53v81zM443 445q0 39 -12.5 66t-33.5 43.5t-47 24t-53 7.5h-124v-196h115v-81h-115v-208h124q25 0 51 7.5t47 24t34.5 43.5t13.5 66v203z" />
    <glyph glyph-name="dcroat" unicode="&#x111;" horiz-adv-x="513" 
d="M207 639h152v77h106v-77h45v-74h-45v-565h-96l-10 49q-51 -31 -86.5 -42.5t-61.5 -11.5q-77 0 -121.5 43.5t-44.5 135.5v149q0 83 47.5 130.5t125.5 47.5q26 0 62.5 -5.5t78.5 -22.5v92h-152v74zM151 182q0 -50 21.5 -68.5t54.5 -18.5q13 0 29.5 4t34.5 11t35.5 16
t32.5 19v227q-35 14 -65.5 21.5t-58.5 7.5q-35 0 -59.5 -21t-24.5 -71v-127z" />
    <glyph glyph-name="Emacron" unicode="&#x112;" horiz-adv-x="567" 
d="M61 689h467v-103h-353v-189h302v-103h-302v-192h353v-102h-467v689zM157 773v89h289v-89h-289z" />
    <glyph glyph-name="emacron" unicode="&#x113;" horiz-adv-x="495" 
d="M152 213v-25q0 -26 9 -44.5t23.5 -30t34 -17t40.5 -5.5q23 0 55.5 8t64.5 37q16 -19 31.5 -36.5t30.5 -36.5q-42 -41 -88.5 -54.5t-93.5 -13.5q-43 0 -81.5 11t-68 33.5t-46.5 56.5t-17 80v130q0 45 15.5 81t43.5 61t65 38.5t81 13.5q45 0 83 -13t65.5 -37.5t42.5 -59.5
t15 -80v-97h-305zM350 304q0 52 -29 75.5t-69 23.5t-69.5 -24.5t-29.5 -73.5v-16h197v15zM113 593v89h290v-89h-290z" />
    <glyph glyph-name="Ebreve" unicode="&#x114;" horiz-adv-x="567" 
d="M61 689h467v-103h-353v-189h302v-103h-302v-192h353v-102h-467v689zM301 731q-42 0 -69.5 14t-45 35t-25 45.5t-8.5 45.5h82q1 -10 5.5 -21.5t13 -21t20.5 -16t27 -6.5q17 0 29.5 6.5t21 16t12.5 21t4 21.5h81q-2 -21 -10 -45.5t-24.5 -45.5t-44 -35t-69.5 -14z" />
    <glyph glyph-name="ebreve" unicode="&#x115;" horiz-adv-x="495" 
d="M152 213v-25q0 -26 9 -44.5t23.5 -30t34 -17t40.5 -5.5q23 0 55.5 8t64.5 37q16 -19 31.5 -36.5t30.5 -36.5q-42 -41 -88.5 -54.5t-93.5 -13.5q-43 0 -81.5 11t-68 33.5t-46.5 56.5t-17 80v130q0 45 15.5 81t43.5 61t65 38.5t81 13.5q45 0 83 -13t65.5 -37.5t42.5 -59.5
t15 -80v-97h-305zM350 304q0 52 -29 75.5t-69 23.5t-69.5 -24.5t-29.5 -73.5v-16h197v15zM257 566q-42 0 -69.5 14t-45 35t-25 45t-8.5 45h82q1 -10 5.5 -21t13 -20.5t20.5 -16t27 -6.5q17 0 29.5 6.5t21 16t12.5 20.5t4 21h81q-2 -21 -10 -45t-24.5 -45t-44 -35t-69.5 -14z
" />
    <glyph glyph-name="Edotaccent" unicode="&#x116;" horiz-adv-x="567" 
d="M61 689h467v-103h-353v-189h302v-103h-302v-192h353v-102h-467v689zM299 749q-29 0 -46 18.5t-17 46.5q0 24 17 43t45 19q29 0 47 -19t18 -43q0 -26 -17 -45.5t-47 -19.5z" />
    <glyph glyph-name="edotaccent" unicode="&#x117;" horiz-adv-x="495" 
d="M152 213v-25q0 -26 9 -44.5t23.5 -30t34 -17t40.5 -5.5q23 0 55.5 8t64.5 37q16 -19 31.5 -36.5t30.5 -36.5q-42 -41 -88.5 -54.5t-93.5 -13.5q-43 0 -81.5 11t-68 33.5t-46.5 56.5t-17 80v130q0 45 15.5 81t43.5 61t65 38.5t81 13.5q45 0 83 -13t65.5 -37.5t42.5 -59.5
t15 -80v-97h-305zM350 304q0 52 -29 75.5t-69 23.5t-69.5 -24.5t-29.5 -73.5v-16h197v15zM253 576q-29 0 -46 18.5t-17 46.5q0 24 17 43t45 19q29 0 47 -19t18 -43q0 -26 -17 -45.5t-47 -19.5z" />
    <glyph glyph-name="Eogonek" unicode="&#x118;" horiz-adv-x="567" 
d="M61 689h467v-103h-353v-189h302v-103h-302v-192h353v-102q-19 -26 -27.5 -45t-8.5 -36q0 -38 42 -38q11 0 25 4.5t34 12.5l23 -58q-21 -12 -46.5 -19.5t-51.5 -7.5q-45 0 -72.5 26.5t-27.5 64.5q0 21 8 43.5t29 52.5h-394v689z" />
    <glyph glyph-name="eogonek" unicode="&#x119;" horiz-adv-x="495" 
d="M301 -58q0 28 14 57q-14 -2 -28 -3t-28 -1q-43 0 -81.5 11t-68 33.5t-46.5 56.5t-17 80v130q0 45 15.5 81t43.5 61t65 38.5t81 13.5q45 0 83 -13t65.5 -37.5t42.5 -59.5t15 -80v-97h-305v-25q0 -26 9 -44.5t23.5 -30t34 -17t40.5 -5.5q23 0 55.5 8t64.5 37
q16 -19 31.5 -36.5t30.5 -36.5q-13 -13 -30 -25q-19 -26 -27.5 -45t-8.5 -36q0 -38 42 -38q11 0 25 4.5t34 12.5l23 -58q-21 -12 -46.5 -19.5t-51.5 -7.5q-45 0 -72.5 26.5t-27.5 64.5zM350 304q0 52 -29 75.5t-69 23.5t-69.5 -24.5t-29.5 -73.5v-16h197v15z" />
    <glyph glyph-name="Ecaron" unicode="&#x11a;" horiz-adv-x="567" 
d="M61 689h467v-103h-353v-189h302v-103h-302v-192h353v-102h-467v689zM442 908l37 -46l-145 -124h-68l-150 126l35 44l146 -84z" />
    <glyph glyph-name="ecaron" unicode="&#x11b;" horiz-adv-x="495" 
d="M152 213v-25q0 -26 9 -44.5t23.5 -30t34 -17t40.5 -5.5q23 0 55.5 8t64.5 37q16 -19 31.5 -36.5t30.5 -36.5q-42 -41 -88.5 -54.5t-93.5 -13.5q-43 0 -81.5 11t-68 33.5t-46.5 56.5t-17 80v130q0 45 15.5 81t43.5 61t65 38.5t81 13.5q45 0 83 -13t65.5 -37.5t42.5 -59.5
t15 -80v-97h-305zM350 304q0 52 -29 75.5t-69 23.5t-69.5 -24.5t-29.5 -73.5v-16h197v15zM389 737l46 -42l-145 -153h-70l-149 154l44 41q6 -4 26 -19t43 -33t43 -33.5t26 -19.5z" />
    <glyph glyph-name="Gcircumflex" unicode="&#x11c;" horiz-adv-x="593" 
d="M537 87q-45 -52 -105.5 -73t-116.5 -21q-49 0 -95.5 14.5t-83 43t-58.5 70.5t-22 96v254q0 54 21.5 95.5t58 70.5t84 44t99.5 15q58 0 111 -16t92 -49l-56 -89q-29 25 -69 37t-77 12q-28 0 -54.5 -8t-47.5 -25t-34 -44t-13 -65v-209q0 -38 12 -65t32.5 -44t46.5 -25
t53 -8q21 0 49.5 6.5t58.5 29.5v138h-105v100h219v-285zM307 819l-146 -84l-36 45l150 125h68l146 -124l-37 -46z" />
    <glyph glyph-name="gcircumflex" unicode="&#x11d;" horiz-adv-x="511" 
d="M463 -29q0 -44 -19.5 -77.5t-51 -56t-70.5 -33.5t-79 -11q-45 0 -95.5 15.5t-92.5 57.5l67 73q12 -12 27.5 -21t32.5 -15t33 -8.5t28 -2.5q22 0 42.5 5.5t36 17.5t25 31t9.5 47v53q-47 -29 -85.5 -38.5t-64.5 -9.5q-78 0 -121 47t-43 130v146q0 86 45.5 133t120.5 47
q27 0 63 -11t85 -42l10 47h97v-524zM149 189q0 -50 21 -70.5t54 -19.5q28 0 63.5 13t68.5 34v201q-32 23 -68.5 37.5t-63.5 14.5q-33 0 -54 -20t-21 -70v-120zM255 648q-6 -4 -26 -19.5t-43 -33.5t-43 -33.5t-26 -19.5l-44 41l149 154h70l145 -152l-46 -43z" />
    <glyph glyph-name="Gbreve" unicode="&#x11e;" horiz-adv-x="593" 
d="M537 87q-45 -52 -105.5 -73t-116.5 -21q-49 0 -95.5 14.5t-83 43t-58.5 70.5t-22 96v254q0 54 21.5 95.5t58 70.5t84 44t99.5 15q58 0 111 -16t92 -49l-56 -89q-29 25 -69 37t-77 12q-28 0 -54.5 -8t-47.5 -25t-34 -44t-13 -65v-209q0 -38 12 -65t32.5 -44t46.5 -25
t53 -8q21 0 49.5 6.5t58.5 29.5v138h-105v100h219v-285zM308 731q-42 0 -69.5 14t-45 35t-25 45.5t-8.5 45.5h82q1 -10 5.5 -21.5t13 -21t20.5 -16t27 -6.5q17 0 29.5 6.5t21 16t12.5 21t4 21.5h81q-2 -21 -10 -45.5t-24.5 -45.5t-44 -35t-69.5 -14z" />
    <glyph glyph-name="gbreve" unicode="&#x11f;" horiz-adv-x="511" 
d="M463 -29q0 -44 -19.5 -77.5t-51 -56t-70.5 -33.5t-79 -11q-45 0 -95.5 15.5t-92.5 57.5l67 73q12 -12 27.5 -21t32.5 -15t33 -8.5t28 -2.5q22 0 42.5 5.5t36 17.5t25 31t9.5 47v53q-47 -29 -85.5 -38.5t-64.5 -9.5q-78 0 -121 47t-43 130v146q0 86 45.5 133t120.5 47
q27 0 63 -11t85 -42l10 47h97v-524zM149 189q0 -50 21 -70.5t54 -19.5q28 0 63.5 13t68.5 34v201q-32 23 -68.5 37.5t-63.5 14.5q-33 0 -54 -20t-21 -70v-120zM273 566q-42 0 -69.5 14t-45 35t-25 45t-8.5 45h82q1 -10 5.5 -21t13 -20.5t20.5 -16t27 -6.5q17 0 29.5 6.5
t21 16t12.5 20.5t4 21h81q-2 -21 -10 -45t-24.5 -45t-44 -35t-69.5 -14z" />
    <glyph glyph-name="Gdotaccent" unicode="&#x120;" horiz-adv-x="593" 
d="M537 87q-45 -52 -105.5 -73t-116.5 -21q-49 0 -95.5 14.5t-83 43t-58.5 70.5t-22 96v254q0 54 21.5 95.5t58 70.5t84 44t99.5 15q58 0 111 -16t92 -49l-56 -89q-29 25 -69 37t-77 12q-28 0 -54.5 -8t-47.5 -25t-34 -44t-13 -65v-209q0 -38 12 -65t32.5 -44t46.5 -25
t53 -8q21 0 49.5 6.5t58.5 29.5v138h-105v100h219v-285zM311 749q-29 0 -46 18.5t-17 46.5q0 24 17 43t45 19q29 0 47 -19t18 -43q0 -26 -17 -45.5t-47 -19.5z" />
    <glyph glyph-name="gdotaccent" unicode="&#x121;" horiz-adv-x="511" 
d="M463 -29q0 -44 -19.5 -77.5t-51 -56t-70.5 -33.5t-79 -11q-45 0 -95.5 15.5t-92.5 57.5l67 73q12 -12 27.5 -21t32.5 -15t33 -8.5t28 -2.5q22 0 42.5 5.5t36 17.5t25 31t9.5 47v53q-47 -29 -85.5 -38.5t-64.5 -9.5q-78 0 -121 47t-43 130v146q0 86 45.5 133t120.5 47
q27 0 63 -11t85 -42l10 47h97v-524zM149 189q0 -50 21 -70.5t54 -19.5q28 0 63.5 13t68.5 34v201q-32 23 -68.5 37.5t-63.5 14.5q-33 0 -54 -20t-21 -70v-120zM264 576q-29 0 -46 18.5t-17 46.5q0 24 17 43t45 19q29 0 47 -19t18 -43q0 -26 -17 -45.5t-47 -19.5z" />
    <glyph glyph-name="Gcommaaccent" unicode="&#x122;" horiz-adv-x="593" 
d="M537 87q-45 -52 -105.5 -73t-116.5 -21q-49 0 -95.5 14.5t-83 43t-58.5 70.5t-22 96v254q0 54 21.5 95.5t58 70.5t84 44t99.5 15q58 0 111 -16t92 -49l-56 -89q-29 25 -69 37t-77 12q-28 0 -54.5 -8t-47.5 -25t-34 -44t-13 -65v-209q0 -38 12 -65t32.5 -44t46.5 -25
t53 -8q21 0 49.5 6.5t58.5 29.5v138h-105v100h219v-285zM233 -250q24 17 38 33t17 43q-22 2 -36 20t-14 44t19.5 46t48.5 20q39 0 57.5 -27t18.5 -62q0 -57 -32.5 -100t-80.5 -65z" />
    <glyph glyph-name="gcommaaccent" unicode="&#x123;" horiz-adv-x="511" 
d="M352 745q-24 -17 -38 -33t-17 -43q22 -2 36 -20t14 -44t-19.5 -46t-48.5 -20q-39 0 -57.5 27t-18.5 62q0 57 32.5 100t80.5 65zM463 -29q0 -44 -19.5 -77.5t-51 -56t-70.5 -33.5t-79 -11q-45 0 -95.5 15.5t-92.5 57.5l67 73q12 -12 27.5 -21t32.5 -15t33 -8.5t28 -2.5
q22 0 42.5 5.5t36 17.5t25 31t9.5 47v53q-47 -29 -85.5 -38.5t-64.5 -9.5q-78 0 -121 47t-43 130v146q0 86 45.5 133t120.5 47q27 0 63 -11t85 -42l10 47h97v-524zM149 189q0 -50 21 -70.5t54 -19.5q28 0 63.5 13t68.5 34v201q-32 23 -68.5 37.5t-63.5 14.5q-33 0 -54 -20
t-21 -70v-120z" />
    <glyph glyph-name="Hcircumflex" unicode="&#x124;" horiz-adv-x="631" 
d="M459 0v298h-289v-298h-114v689h114v-288h289v288h116v-689h-116zM310 819l-146 -84l-36 45l150 125h68l146 -124l-37 -46z" />
    <glyph glyph-name="hcircumflex" unicode="&#x125;" horiz-adv-x="513" 
d="M364 0v309q0 25 -6 42.5t-16.5 28t-24.5 15t-30 4.5q-27 0 -61 -13t-72 -37v-349h-106v716h106v-271q57 37 94.5 46.5t64.5 9.5q82 0 120 -47.5t38 -130.5v-323h-107zM102 819l-146 -84l-36 45l150 125h68l146 -124l-37 -46z" />
    <glyph glyph-name="Hbar" unicode="&#x126;" horiz-adv-x="631" 
d="M459 0v298h-289v-298h-114v523h-40v76h40v90h114v-90h289v90h116v-90h47v-76h-47v-523h-116zM459 401v122h-289v-122h289z" />
    <glyph glyph-name="hbar" unicode="&#x127;" horiz-adv-x="513" 
d="M364 0v309q0 25 -6 42.5t-16.5 28t-24.5 15t-30 4.5q-27 0 -61 -13t-72 -37v-349h-106v568h-48v76h48v72h106v-72h203v-76h-203v-123q57 37 94.5 46.5t64.5 9.5q82 0 120 -47.5t38 -130.5v-323h-107z" />
    <glyph glyph-name="Itilde" unicode="&#x128;" horiz-adv-x="274" 
d="M194 689v-689h-114v689h114zM75 876q19 0 37.5 -7.5t36 -16.5t33 -16.5t27.5 -7.5q16 0 30.5 10.5t31.5 35.5l58 -34q-24 -51 -51.5 -73.5t-60.5 -22.5q-19 0 -37 7t-35 15t-33 15t-30 7q-17 0 -31 -8t-34 -34l-58 34q23 47 52 71.5t64 24.5z" />
    <glyph glyph-name="itilde" unicode="&#x129;" horiz-adv-x="350" 
d="M121 0v495h106v-495h-106zM106 706q19 0 37.5 -7.5t36 -16.5t33 -16.5t27.5 -7.5q16 0 30.5 10.5t31.5 35.5l58 -34q-24 -51 -51.5 -73.5t-60.5 -22.5q-19 0 -37 7t-35 15t-33 15t-30 7q-17 0 -31 -8t-34 -34l-58 34q23 47 52 71.5t64 24.5z" />
    <glyph glyph-name="Imacron" unicode="&#x12a;" horiz-adv-x="274" 
d="M194 689v-689h-114v689h114zM-5 773v89h289v-89h-289z" />
    <glyph glyph-name="imacron" unicode="&#x12b;" horiz-adv-x="254" 
d="M74 0v495h106v-495h-106zM-20 593v89h290v-89h-290z" />
    <glyph glyph-name="Ibreve" unicode="&#x12c;" horiz-adv-x="274" 
d="M139 731q-42 0 -69.5 14t-45 35t-25 45.5t-8.5 45.5h82q1 -10 5.5 -21.5t13 -21t20.5 -16t27 -6.5q17 0 29.5 6.5t21 16t12.5 21t4 21.5h81q-2 -21 -10 -45.5t-24.5 -45.5t-44 -35t-69.5 -14zM194 689v-689h-114v689h114z" />
    <glyph glyph-name="ibreve" unicode="&#x12d;" horiz-adv-x="254" 
d="M74 0v495h106v-495h-106zM126 572q-42 0 -69.5 14t-45 35t-25 45t-8.5 45h82q1 -10 5.5 -21t13 -20.5t20.5 -16t27 -6.5q17 0 29.5 6.5t21 16t12.5 20.5t4 21h81q-2 -21 -10 -45t-24.5 -45t-44 -35t-69.5 -14z" />
    <glyph glyph-name="Iogonek" unicode="&#x12e;" horiz-adv-x="274" 
d="M64 -96q0 21 8 43.5t29 52.5h-21v689h114v-689h-20q-19 -26 -27.5 -45t-8.5 -36q0 -38 42 -38q11 0 25 4.5t34 12.5l23 -58q-21 -12 -46.5 -19.5t-51.5 -7.5q-45 0 -72.5 26.5t-27.5 64.5z" />
    <glyph glyph-name="iogonek" unicode="&#x12f;" horiz-adv-x="254" 
d="M54 -95q0 20 8 42.5t29 52.5h-17v495h106v-495h-17q-19 -26 -27 -44.5t-8 -35.5q0 -38 42 -38q11 0 25 4.5t34 12.5l23 -58q-21 -12 -46.5 -19.5t-51.5 -7.5q-45 0 -72.5 26.5t-27.5 64.5zM66 637q0 26 17.5 43.5t42.5 17.5q26 0 43.5 -17.5t17.5 -43.5t-17.5 -43.5
t-43.5 -17.5q-25 0 -42.5 17.5t-17.5 43.5z" />
    <glyph glyph-name="Idotaccent" unicode="&#x130;" horiz-adv-x="274" 
d="M194 689v-689h-114v689h114zM139 749q-29 0 -46 18.5t-17 46.5q0 24 17 43t45 19q29 0 47 -19t18 -43q0 -26 -17 -45.5t-47 -19.5z" />
    <glyph glyph-name="dotlessi" unicode="&#x131;" horiz-adv-x="254" 
d="M74 0v495h106v-495h-106z" />
    <glyph glyph-name="IJ" unicode="&#x132;" horiz-adv-x="763" 
d="M194 689v-689h-114v689h114zM687 219q0 -54 -19.5 -96t-53 -71t-77 -44t-91.5 -15q-26 0 -53.5 3.5t-53.5 11t-50 18.5t-43 25l53 90q35 -24 67.5 -33.5t63.5 -9.5t57 8t45 25t29.5 45t10.5 69v444h115v-470z" />
    <glyph glyph-name="ij" unicode="&#x133;" horiz-adv-x="480" 
d="M74 0v495h106v-495h-106zM66 637q0 26 17.5 43.5t42.5 17.5q26 0 43.5 -17.5t17.5 -43.5t-17.5 -43.5t-43.5 -17.5q-25 0 -42.5 17.5t-17.5 43.5zM412 -52q0 -78 -41 -114.5t-110 -36.5h-53v94h36q37 0 49.5 17t12.5 56v531h106v-547zM299 638q0 25 17 42.5t43 17.5
t43.5 -17.5t17.5 -42.5q0 -26 -17.5 -43.5t-43.5 -17.5t-43 17.5t-17 43.5z" />
    <glyph glyph-name="Jcircumflex" unicode="&#x134;" horiz-adv-x="527" 
d="M451 220q0 -54 -19.5 -96t-53 -71t-77 -44t-91.5 -15q-26 0 -53.5 3.5t-53.5 11t-50 18.5t-43 25l53 90q35 -24 67.5 -33.5t63.5 -9.5t57 8t45 25t29.5 45t10.5 69v444h115v-470zM395 821l-146 -84l-36 45l150 125h68l146 -124l-37 -46z" />
    <glyph glyph-name="jcircumflex" unicode="&#x135;" horiz-adv-x="344" 
d="M224 -53q0 -78 -41 -114t-110 -36h-53v93h36q37 0 49.5 17t12.5 56v532h106v-548zM172 648q-6 -4 -26 -19.5t-43 -33.5t-43 -33.5t-26 -19.5l-44 41l149 154h70l145 -152l-46 -43z" />
    <glyph glyph-name="Kcommaaccent" unicode="&#x136;" horiz-adv-x="609" 
d="M176 358l110 137l161 194h137l-226 -275l245 -414h-134q-47 81 -93.5 161t-93.5 161q-28 -33 -55.5 -65.5t-54.5 -65.5v-191h-115v689h115v-331h4zM235 -230q24 17 38 33t17 43q-22 2 -36 20t-14 44t19.5 46t48.5 20q39 0 57.5 -27t18.5 -62q0 -57 -32.5 -100t-80.5 -65z
" />
    <glyph glyph-name="kcommaaccent" unicode="&#x137;" horiz-adv-x="497" 
d="M47 0v716h107v-379h57q30 0 51.5 12t39.5 48l51 100h119l-60 -125q-14 -29 -30 -49t-46 -31q21 -7 35 -18.5t23 -25.5t15 -30t11 -32l62 -186h-118l-51 160q-14 44 -35 60t-60 16h-64v-236h-107zM183 -250q24 17 38 33t17 43q-22 2 -36 20t-14 44t19.5 46t48.5 20
q39 0 57.5 -27t18.5 -62q0 -57 -32.5 -100t-80.5 -65z" />
    <glyph glyph-name="kgreenlandic" unicode="&#x138;" horiz-adv-x="504" 
d="M50 0v496h106v-198h63q30 0 54 12t40 56l45 130h112l-51 -144q-12 -36 -28.5 -59.5t-45.5 -33.5q35 -10 51 -35.5t28 -62.5l55 -161h-116l-41 134q-7 23 -16.5 37t-21.5 21.5t-26.5 10t-32.5 2.5h-69v-205h-106z" />
    <glyph glyph-name="Lacute" unicode="&#x139;" horiz-adv-x="540" 
d="M64 0v689h113v-587h355v-102h-468zM77 787l168 130l60 -82l-190 -101z" />
    <glyph glyph-name="lacute" unicode="&#x13a;" horiz-adv-x="281" 
d="M181 145q0 -36 15 -45t56 -9l2 -92q-15 -3 -29 -4t-26 -1q-40 0 -64 9.5t-37.5 27t-18 42t-4.5 55.5v588h106v-571zM85 797l168 130l60 -82l-190 -101z" />
    <glyph glyph-name="Lcommaaccent" unicode="&#x13b;" horiz-adv-x="540" 
d="M64 0v689h113v-587h355v-102h-468zM217 -250q24 17 38 33t17 43q-22 2 -36 20t-14 44t19.5 46t48.5 20q39 0 57.5 -27t18.5 -62q0 -57 -32.5 -100t-80.5 -65z" />
    <glyph glyph-name="lcommaaccent" unicode="&#x13c;" horiz-adv-x="281" 
d="M181 145q0 -36 15 -45t56 -9l2 -92q-15 -3 -29 -4t-26 -1q-40 0 -64 9.5t-37.5 27t-18 42t-4.5 55.5v588h106v-571zM76 -249q24 17 38 33t17 43q-22 2 -36 20t-14 44t19.5 46t48.5 20q39 0 57.5 -27t18.5 -62q0 -57 -32.5 -100t-80.5 -65z" />
    <glyph glyph-name="Lcaron" unicode="&#x13d;" horiz-adv-x="540" 
d="M64 0v689h113v-587h355v-102h-468zM296 488q24 17 38 33t17 43q-22 2 -36 20t-14 44t19.5 46t48.5 20q39 0 57.5 -27t18.5 -62q0 -57 -32.5 -100t-80.5 -65z" />
    <glyph glyph-name="lcaron" unicode="&#x13e;" horiz-adv-x="368" 
d="M223 511q24 17 38 33t17 43q-22 2 -36 20t-14 44t19.5 46t48.5 20q39 0 57.5 -27t18.5 -62q0 -57 -32.5 -100t-80.5 -65zM181 145q0 -36 15 -45t56 -9l2 -92q-15 -3 -29 -4t-26 -1q-40 0 -64 9.5t-37.5 27t-18 42t-4.5 55.5v588h106v-571z" />
    <glyph glyph-name="Ldot" unicode="&#x13f;" horiz-adv-x="540" 
d="M64 0v689h113v-587h355v-102h-468zM358 297q-29 0 -46 18.5t-17 46.5q0 24 17 43t45 19q29 0 47 -19t18 -43q0 -26 -17 -45.5t-47 -19.5z" />
    <glyph glyph-name="ldot" unicode="&#x140;" horiz-adv-x="341" 
d="M290 317q-29 0 -46 18.5t-17 46.5q0 24 17 43t45 19q29 0 47 -19t18 -43q0 -26 -17 -45.5t-47 -19.5zM181 145q0 -36 15 -45t56 -9l2 -92q-15 -3 -29 -4t-26 -1q-40 0 -64 9.5t-37.5 27t-18 42t-4.5 55.5v588h106v-571z" />
    <glyph glyph-name="Lslash" unicode="&#x141;" horiz-adv-x="540" 
d="M64 0v211l-38 -22l-39 68l77 45v387h113v-322l145 85l39 -68l-184 -107v-175h355v-102h-468z" />
    <glyph glyph-name="lslash" unicode="&#x142;" horiz-adv-x="302" 
d="M194 426l74 44l39 -67l-113 -67v-191q0 -36 15 -45t56 -9l2 -92q-15 -3 -29 -4t-26 -1q-40 0 -64 9.5t-37.5 27t-18 42t-4.5 55.5v145l-54 -32l-39 68l93 55v352h106v-290z" />
    <glyph glyph-name="Nacute" unicode="&#x143;" horiz-adv-x="660" 
d="M173 473v-473h-114v689h106l205 -305l111 -171h6v476h114v-689h-107l-208 310l-106 163h-7zM266 787l168 130l60 -82l-190 -101z" />
    <glyph glyph-name="nacute" unicode="&#x144;" horiz-adv-x="513" 
d="M362 0v309q0 51 -22 70.5t-55 19.5q-27 0 -61 -13t-72 -37v-349h-106v495h96l10 -49q30 18 54.5 29t44 17t35 7.5t28.5 1.5q78 0 116.5 -47t38.5 -130v-324h-107zM196 570l76 185l98 -31l-111 -178z" />
    <glyph glyph-name="Ncommaaccent" unicode="&#x145;" horiz-adv-x="660" 
d="M173 473v-473h-114v689h106l205 -305l111 -171h6v476h114v-689h-107l-208 310l-106 163h-7zM263 -230q24 17 38 33t17 43q-22 2 -36 20t-14 44t19.5 46t48.5 20q39 0 57.5 -27t18.5 -62q0 -57 -32.5 -100t-80.5 -65z" />
    <glyph glyph-name="ncommaaccent" unicode="&#x146;" horiz-adv-x="513" 
d="M362 0v309q0 51 -22 70.5t-55 19.5q-27 0 -61 -13t-72 -37v-349h-106v495h96l10 -49q30 18 54.5 29t44 17t35 7.5t28.5 1.5q78 0 116.5 -47t38.5 -130v-324h-107zM182 -250q24 17 38 33t17 43q-22 2 -36 20t-14 44t19.5 46t48.5 20q39 0 57.5 -27t18.5 -62
q0 -57 -32.5 -100t-80.5 -65z" />
    <glyph glyph-name="Ncaron" unicode="&#x147;" horiz-adv-x="660" 
d="M173 473v-473h-114v689h106l205 -305l111 -171h6v476h114v-689h-107l-208 310l-106 163h-7zM469 908l37 -46l-145 -124h-68l-150 126l35 44l146 -84z" />
    <glyph glyph-name="ncaron" unicode="&#x148;" horiz-adv-x="513" 
d="M362 0v309q0 51 -22 70.5t-55 19.5q-27 0 -61 -13t-72 -37v-349h-106v495h96l10 -49q30 18 54.5 29t44 17t35 7.5t28.5 1.5q78 0 116.5 -47t38.5 -130v-324h-107zM376 737l46 -42l-145 -153h-70l-149 154l44 41q6 -4 26 -19t43 -33t43 -33.5t26 -19.5z" />
    <glyph glyph-name="napostrophe" unicode="&#x149;" horiz-adv-x="618" 
d="M467 0v309q0 51 -22 70.5t-55 19.5q-27 0 -61 -13t-72 -37v-349h-106v495h96l10 -49q30 18 54.5 29t44 17t35 7.5t28.5 1.5q78 0 116.5 -47t38.5 -130v-324h-107zM-13 477q24 17 38 33t17 43q-22 2 -36 20t-14 44t19.5 46t48.5 20q39 0 57.5 -27t18.5 -62
q0 -57 -32.5 -100t-80.5 -65z" />
    <glyph glyph-name="Eng" unicode="&#x14a;" horiz-adv-x="660" 
d="M173 473v-473h-114v689h106l205 -305l111 -171h6v476h114l-1 -761q0 -30 -9 -51t-24.5 -34.5t-36 -19.5t-43.5 -6q-49 0 -99 22l24 80q12 -3 22.5 -5t18.5 -2q41 0 41 47v42l-208 309l-106 163h-7z" />
    <glyph glyph-name="eng" unicode="&#x14b;" horiz-adv-x="513" 
d="M469 -72q0 -30 -9 -51t-24.5 -34.5t-36.5 -19.5t-44 -6q-47 0 -99 22l24 80q13 -3 23 -5t18 -2q41 0 41 47v350q0 51 -22 70.5t-55 19.5q-27 0 -61 -13t-72 -37v-349h-106v495h94l10 -49q60 37 99 46t65 9q78 0 116.5 -47t38.5 -130v-396v0z" />
    <glyph glyph-name="Omacron" unicode="&#x14c;" horiz-adv-x="625" 
d="M572 223q0 -54 -20 -97t-55.5 -72.5t-83 -45t-101.5 -15.5q-55 0 -102.5 15.5t-82 45t-54.5 72.5t-20 97v245q0 54 20.5 96t55.5 71.5t82 45t101 15.5q53 0 100.5 -16t83 -45.5t56 -72t20.5 -96.5v-243zM457 449q0 37 -12 64t-32 44.5t-46.5 25.5t-54.5 8q-29 0 -55 -8
t-45.5 -25.5t-31.5 -44.5t-12 -64v-209q0 -38 12 -65t32 -44t46 -25t54 -8t54.5 8t46.5 25t32 44t12 65v209zM168 773v89h289v-89h-289z" />
    <glyph glyph-name="omacron" unicode="&#x14d;" horiz-adv-x="512" 
d="M466 175q0 -44 -17.5 -78t-47 -56.5t-67.5 -34t-79 -11.5q-42 0 -80.5 11.5t-67 34t-45.5 56.5t-17 78v144q0 44 17.5 78t46.5 57t67 35t80 12q45 0 83 -12t66.5 -35.5t44.5 -57.5t16 -78v-143zM361 300q0 28 -9.5 47.5t-24.5 31.5t-34 17.5t-37 5.5t-37 -5.5t-34 -17.5
t-24.5 -31.5t-9.5 -47.5v-105q0 -56 31 -79t74 -23q18 0 37 5.5t34 17.5t24.5 31.5t9.5 47.5v105zM111 593v89h290v-89h-290z" />
    <glyph glyph-name="Obreve" unicode="&#x14e;" horiz-adv-x="625" 
d="M572 223q0 -54 -20 -97t-55.5 -72.5t-83 -45t-101.5 -15.5q-55 0 -102.5 15.5t-82 45t-54.5 72.5t-20 97v245q0 54 20.5 96t55.5 71.5t82 45t101 15.5q53 0 100.5 -16t83 -45.5t56 -72t20.5 -96.5v-243zM457 449q0 37 -12 64t-32 44.5t-46.5 25.5t-54.5 8q-29 0 -55 -8
t-45.5 -25.5t-31.5 -44.5t-12 -64v-209q0 -38 12 -65t32 -44t46 -25t54 -8t54.5 8t46.5 25t32 44t12 65v209zM315 731q-42 0 -69.5 14t-45 35t-25 45.5t-8.5 45.5h82q1 -10 5.5 -21.5t13 -21t20.5 -16t27 -6.5q17 0 29.5 6.5t21 16t12.5 21t4 21.5h81q-2 -21 -10 -45.5
t-24.5 -45.5t-44 -35t-69.5 -14z" />
    <glyph glyph-name="obreve" unicode="&#x14f;" horiz-adv-x="512" 
d="M466 175q0 -44 -17.5 -78t-47 -56.5t-67.5 -34t-79 -11.5q-42 0 -80.5 11.5t-67 34t-45.5 56.5t-17 78v144q0 44 17.5 78t46.5 57t67 35t80 12q45 0 83 -12t66.5 -35.5t44.5 -57.5t16 -78v-143zM361 300q0 28 -9.5 47.5t-24.5 31.5t-34 17.5t-37 5.5t-37 -5.5t-34 -17.5
t-24.5 -31.5t-9.5 -47.5v-105q0 -56 31 -79t74 -23q18 0 37 5.5t34 17.5t24.5 31.5t9.5 47.5v105zM258 566q-42 0 -69.5 14t-45 35t-25 45t-8.5 45h82q1 -10 5.5 -21t13 -20.5t20.5 -16t27 -6.5q17 0 29.5 6.5t21 16t12.5 20.5t4 21h81q-2 -21 -10 -45t-24.5 -45t-44 -35
t-69.5 -14z" />
    <glyph glyph-name="Ohungarumlaut" unicode="&#x150;" horiz-adv-x="625" 
d="M572 223q0 -54 -20 -97t-55.5 -72.5t-83 -45t-101.5 -15.5q-55 0 -102.5 15.5t-82 45t-54.5 72.5t-20 97v245q0 54 20.5 96t55.5 71.5t82 45t101 15.5q53 0 100.5 -16t83 -45.5t56 -72t20.5 -96.5v-243zM457 449q0 37 -12 64t-32 44.5t-46.5 25.5t-54.5 8q-29 0 -55 -8
t-45.5 -25.5t-31.5 -44.5t-12 -64v-209q0 -38 12 -65t32 -44t46 -25t54 -8t54.5 8t46.5 25t32 44t12 65v209zM159 781l152 132l74 -72l-180 -108zM334 781l152 132l74 -72l-180 -108z" />
    <glyph glyph-name="ohungarumlaut" unicode="&#x151;" horiz-adv-x="512" 
d="M466 175q0 -44 -17.5 -78t-47 -56.5t-67.5 -34t-79 -11.5q-42 0 -80.5 11.5t-67 34t-45.5 56.5t-17 78v144q0 44 17.5 78t46.5 57t67 35t80 12q45 0 83 -12t66.5 -35.5t44.5 -57.5t16 -78v-143zM361 300q0 28 -9.5 47.5t-24.5 31.5t-34 17.5t-37 5.5t-37 -5.5t-34 -17.5
t-24.5 -31.5t-9.5 -47.5v-105q0 -56 31 -79t74 -23q18 0 37 5.5t34 17.5t24.5 31.5t9.5 47.5v105zM141 570l76 185l98 -31l-111 -178zM289 570l77 185l98 -31l-112 -178z" />
    <glyph glyph-name="OE" unicode="&#x152;" horiz-adv-x="894" 
d="M312 696q20 0 39 -1.5t37 -5.5h467v-103h-353v-189h302v-103h-302v-192h353v-102h-466q-35 -7 -77 -7q-55 0 -102.5 15.5t-82 45t-54.5 72.5t-20 97v245q0 54 20.5 96t55.5 71.5t82 45t101 15.5zM312 98q20 0 39.5 3t36.5 12v462q-17 9 -36.5 12.5t-39.5 3.5
q-29 0 -55 -8t-45.5 -25.5t-31.5 -44.5t-12 -64v-209q0 -38 12 -65t32 -44t46 -25t54 -8z" />
    <glyph glyph-name="oe" unicode="&#x153;" horiz-adv-x="812" 
d="M468 213v-25q0 -27 10 -45.5t26 -29.5t37 -16t44 -5t52.5 9.5t58.5 34.5q15 -19 30.5 -36.5t31.5 -36.5q-42 -41 -88.5 -54.5t-93.5 -13.5q-48 0 -90.5 13.5t-71.5 42.5q-29 -28 -70.5 -42t-87.5 -14q-43 0 -81 11.5t-66.5 34t-45.5 56.5t-17 78v144q0 44 17 78t46 57
t67 35t80 12q50 0 91 -15t69 -43q28 27 67 42t85 15q45 0 82.5 -13t65 -38t42.5 -60t15 -79v-97h-305zM362 302q-1 28 -10.5 47t-24.5 31t-33.5 17t-36.5 5t-37 -5.5t-34 -17.5t-24.5 -31.5t-9.5 -47.5v-105q0 -56 31 -79t74 -23q18 0 36 5t33 16.5t25 30t11 45.5v112z
M666 304q0 52 -29 75.5t-69 23.5q-42 0 -70.5 -26t-28.5 -79v-9h197v15z" />
    <glyph glyph-name="Racute" unicode="&#x154;" horiz-adv-x="583" 
d="M354 689q52 0 89 -19t61 -49.5t35.5 -68t11.5 -74.5q0 -28 -8 -56.5t-23 -54t-36.5 -46t-49.5 -33.5l126 -288h-124l-113 268h-151v-268h-115v689h297zM439 478q0 48 -29.5 77.5t-80.5 29.5h-157v-213h157q51 0 80.5 29t29.5 77zM224 787l168 130l60 -82l-190 -101z" />
    <glyph glyph-name="racute" unicode="&#x155;" horiz-adv-x="356" 
d="M349 391q-66 -6 -109.5 -22t-72.5 -34v-335h-106v496h96l9 -73h1q13 13 33.5 27t45 25.5t51 19t52.5 7.5v-111zM125 570l76 185l98 -31l-111 -178z" />
    <glyph glyph-name="Rcommaaccent" unicode="&#x156;" horiz-adv-x="583" 
d="M354 689q52 0 89 -19t61 -49.5t35.5 -68t11.5 -74.5q0 -28 -8 -56.5t-23 -54t-36.5 -46t-49.5 -33.5l126 -288h-124l-113 268h-151v-268h-115v689h297zM439 478q0 48 -29.5 77.5t-80.5 29.5h-157v-213h157q51 0 80.5 29t29.5 77zM218 -230q24 17 38 33t17 43
q-22 2 -36 20t-14 44t19.5 46t48.5 20q39 0 57.5 -27t18.5 -62q0 -57 -32.5 -100t-80.5 -65z" />
    <glyph glyph-name="rcommaaccent" unicode="&#x157;" horiz-adv-x="356" 
d="M349 391q-66 -6 -109.5 -22t-72.5 -34v-335h-106v496h96l9 -73h1q13 13 33.5 27t45 25.5t51 19t52.5 7.5v-111zM37 -250q24 17 38 33t17 43q-22 2 -36 20t-14 44t19.5 46t48.5 20q39 0 57.5 -27t18.5 -62q0 -57 -32.5 -100t-80.5 -65z" />
    <glyph glyph-name="Rcaron" unicode="&#x158;" horiz-adv-x="583" 
d="M354 689q52 0 89 -19t61 -49.5t35.5 -68t11.5 -74.5q0 -28 -8 -56.5t-23 -54t-36.5 -46t-49.5 -33.5l126 -288h-124l-113 268h-151v-268h-115v689h297zM439 478q0 48 -29.5 77.5t-80.5 29.5h-157v-213h157q51 0 80.5 29t29.5 77zM421 908l37 -46l-145 -124h-68l-150 126
l35 44l146 -84z" />
    <glyph glyph-name="rcaron" unicode="&#x159;" horiz-adv-x="356" 
d="M349 391q-66 -6 -109.5 -22t-72.5 -34v-335h-106v496h96l9 -73h1q13 13 33.5 27t45 25.5t51 19t52.5 7.5v-111zM312 737l46 -42l-145 -153h-70l-149 154l44 41q6 -4 26 -19t43 -33t43 -33.5t26 -19.5z" />
    <glyph glyph-name="Sacute" unicode="&#x15a;" horiz-adv-x="577" 
d="M545 195q0 -48 -19 -85.5t-52.5 -63t-80.5 -39t-102 -13.5q-73 0 -137.5 20.5t-124.5 69.5l64 83q45 -33 95.5 -51.5t101.5 -18.5q68 0 101.5 27.5t33.5 69.5q0 29 -13.5 47t-36.5 30t-52.5 19t-61.5 15q-40 9 -77.5 23t-66 36.5t-46 55t-17.5 79.5q0 44 16 81t46 64
t72 42.5t94 15.5q62 0 122.5 -12.5t115.5 -47.5l-51 -94q-46 28 -91.5 39t-89.5 11q-24 0 -45.5 -6t-38 -18t-26.5 -30.5t-10 -43.5t13 -42t34.5 -28.5t49 -19t57.5 -13.5q49 -11 90 -26t70.5 -38.5t46 -56.5t16.5 -81zM220 787l168 130l60 -82l-190 -101z" />
    <glyph glyph-name="sacute" unicode="&#x15b;" horiz-adv-x="460" 
d="M232 -6q-54 0 -105 13t-105 56l58 77q37 -31 75 -42.5t80 -11.5q35 0 62.5 15t27.5 46q0 26 -18 38.5t-53 18.5q-36 6 -73 13.5t-67 22.5t-49 40.5t-19 67.5q0 36 15 64.5t40.5 48t58.5 30t70 10.5q57 0 102.5 -11.5t89.5 -43.5l-52 -79q-36 23 -70 31.5t-69 8.5
q-38 0 -59.5 -17t-21.5 -40t21 -33.5t52.5 -17t68.5 -13.5t68.5 -22t52.5 -42.5t21 -74.5q0 -36 -15.5 -64.5t-43 -48t-64.5 -30t-79 -10.5zM187 570l76 185l98 -31l-111 -178z" />
    <glyph glyph-name="Scircumflex" unicode="&#x15c;" horiz-adv-x="577" 
d="M545 195q0 -48 -19 -85.5t-52.5 -63t-80.5 -39t-102 -13.5q-73 0 -137.5 20.5t-124.5 69.5l64 83q45 -33 95.5 -51.5t101.5 -18.5q68 0 101.5 27.5t33.5 69.5q0 29 -13.5 47t-36.5 30t-52.5 19t-61.5 15q-40 9 -77.5 23t-66 36.5t-46 55t-17.5 79.5q0 44 16 81t46 64
t72 42.5t94 15.5q62 0 122.5 -12.5t115.5 -47.5l-51 -94q-46 28 -91.5 39t-89.5 11q-24 0 -45.5 -6t-38 -18t-26.5 -30.5t-10 -43.5t13 -42t34.5 -28.5t49 -19t57.5 -13.5q49 -11 90 -26t70.5 -38.5t46 -56.5t16.5 -81zM291 819l-146 -84l-36 45l150 125h68l146 -124
l-37 -46z" />
    <glyph glyph-name="scircumflex" unicode="&#x15d;" horiz-adv-x="460" 
d="M232 -6q-54 0 -105 13t-105 56l58 77q37 -31 75 -42.5t80 -11.5q35 0 62.5 15t27.5 46q0 26 -18 38.5t-53 18.5q-36 6 -73 13.5t-67 22.5t-49 40.5t-19 67.5q0 36 15 64.5t40.5 48t58.5 30t70 10.5q57 0 102.5 -11.5t89.5 -43.5l-52 -79q-36 23 -70 31.5t-69 8.5
q-38 0 -59.5 -17t-21.5 -40t21 -33.5t52.5 -17t68.5 -13.5t68.5 -22t52.5 -42.5t21 -74.5q0 -36 -15.5 -64.5t-43 -48t-64.5 -30t-79 -10.5zM238 648q-6 -4 -26 -19.5t-43 -33.5t-43 -33.5t-26 -19.5l-44 41l149 154h70l145 -152l-46 -43z" />
    <glyph glyph-name="Scedilla" unicode="&#x15e;" horiz-adv-x="577" 
d="M545 195q0 -47 -17.5 -83.5t-49.5 -62t-76 -39.5t-97 -16l-10 -32q28 -2 47 -10.5t30.5 -21t16.5 -26.5t5 -27q0 -15 -6.5 -30t-19.5 -28t-33.5 -21t-48.5 -8q-23 0 -50 4.5t-51 15.5q5 12 9.5 24t9.5 25q23 -9 41.5 -11.5t33.5 -2.5q20 0 33 9t13 25q0 13 -10 24t-33 11
q-4 0 -7.5 -0.5t-8.5 -1.5l-34 18q5 17 10 33l10 32q-61 5 -116 26t-107 63l64 83q45 -33 95.5 -51.5t101.5 -18.5q68 0 101.5 27.5t33.5 69.5q0 29 -13.5 47t-36.5 30t-52.5 19t-61.5 15q-40 9 -77.5 23t-66 36.5t-46 55t-17.5 79.5q0 44 16 81t46 64t72 42.5t94 15.5
q62 0 122.5 -12.5t115.5 -47.5l-51 -94q-46 28 -91.5 39t-89.5 11q-24 0 -45.5 -6t-38 -18t-26.5 -30.5t-10 -43.5t13 -42t34.5 -28.5t49 -19t57.5 -13.5q49 -11 90 -26t70.5 -38.5t46 -56.5t16.5 -81z" />
    <glyph glyph-name="scedilla" unicode="&#x15f;" horiz-adv-x="460" 
d="M434 147q0 -34 -14 -61t-38.5 -46.5t-57.5 -31t-72 -13.5l-10 -33q28 -2 47 -10.5t30.5 -21t16.5 -26.5t5 -27q0 -15 -6.5 -30t-19.5 -28t-33.5 -21t-48.5 -8q-23 0 -50 4.5t-51 15.5q5 12 9.5 24t9.5 25q23 -9 41.5 -11.5t33.5 -2.5q20 0 33 9t13 25q0 13 -10 24t-33 11
q-4 0 -7.5 -0.5t-8.5 -1.5l-34 18q5 17 10 33l10 32q-45 3 -88.5 17.5t-88.5 50.5l58 77q37 -31 75 -42.5t80 -11.5q35 0 62.5 15t27.5 46q0 26 -18 38.5t-53 18.5q-36 6 -73 13.5t-67 22.5t-49 40.5t-19 67.5q0 36 15 64.5t40.5 48t58.5 30t70 10.5q57 0 102.5 -11.5
t89.5 -43.5l-52 -79q-36 23 -70 31.5t-69 8.5q-38 0 -59.5 -17t-21.5 -40t21 -33.5t52.5 -17t68.5 -13.5t68.5 -22t52.5 -42.5t21 -74.5z" />
    <glyph glyph-name="Scaron" unicode="&#x160;" horiz-adv-x="577" 
d="M545 195q0 -48 -19 -85.5t-52.5 -63t-80.5 -39t-102 -13.5q-73 0 -137.5 20.5t-124.5 69.5l64 83q45 -33 95.5 -51.5t101.5 -18.5q68 0 101.5 27.5t33.5 69.5q0 29 -13.5 47t-36.5 30t-52.5 19t-61.5 15q-40 9 -77.5 23t-66 36.5t-46 55t-17.5 79.5q0 44 16 81t46 64
t72 42.5t94 15.5q62 0 122.5 -12.5t115.5 -47.5l-51 -94q-46 28 -91.5 39t-89.5 11q-24 0 -45.5 -6t-38 -18t-26.5 -30.5t-10 -43.5t13 -42t34.5 -28.5t49 -19t57.5 -13.5q49 -11 90 -26t70.5 -38.5t46 -56.5t16.5 -81zM441 908l37 -46l-145 -124h-68l-150 126l35 44
l146 -84z" />
    <glyph glyph-name="scaron" unicode="&#x161;" horiz-adv-x="460" 
d="M232 -6q-54 0 -105 13t-105 56l58 77q37 -31 75 -42.5t80 -11.5q35 0 62.5 15t27.5 46q0 26 -18 38.5t-53 18.5q-36 6 -73 13.5t-67 22.5t-49 40.5t-19 67.5q0 36 15 64.5t40.5 48t58.5 30t70 10.5q57 0 102.5 -11.5t89.5 -43.5l-52 -79q-36 23 -70 31.5t-69 8.5
q-38 0 -59.5 -17t-21.5 -40t21 -33.5t52.5 -17t68.5 -13.5t68.5 -22t52.5 -42.5t21 -74.5q0 -36 -15.5 -64.5t-43 -48t-64.5 -30t-79 -10.5zM374 737l46 -42l-145 -153h-70l-149 154l44 41q6 -4 26 -19t43 -33t43 -33.5t26 -19.5z" />
    <glyph glyph-name="Tcommaaccent" unicode="&#x162;" horiz-adv-x="524" 
d="M320 585v-585h-115v585h-191v104h496v-104h-190zM188 -250q24 17 38 33t17 43q-22 2 -36 20t-14 44t19.5 46t48.5 20q39 0 57.5 -27t18.5 -62q0 -57 -32.5 -100t-80.5 -65z" />
    <glyph glyph-name="tcommaaccent" unicode="&#x163;" horiz-adv-x="370" 
d="M27 405v90h68l21 119h82v-119h129v-90h-129v-224q0 -47 13 -67.5t56 -20.5q13 0 34 2.5t43 9.5l21 -93q-30 -11 -63.5 -14t-53.5 -3q-44 0 -73.5 11.5t-47.5 33t-26 53t-8 71.5v241h-66zM97 -250q24 17 38 33t17 43q-22 2 -36 20t-14 44t19.5 46t48.5 20q39 0 57.5 -27
t18.5 -62q0 -57 -32.5 -100t-80.5 -65z" />
    <glyph glyph-name="Tcaron" unicode="&#x164;" horiz-adv-x="524" 
d="M320 585v-585h-115v585h-191v104h496v-104h-190zM410 908l37 -46l-145 -124h-68l-150 126l35 44l146 -84z" />
    <glyph glyph-name="tcaron" unicode="&#x165;" horiz-adv-x="392" 
d="M252 589q24 17 38 33t17 43q-22 2 -36 20t-14 44t19.5 46t48.5 20q39 0 57.5 -27t18.5 -62q0 -57 -32.5 -100t-80.5 -65zM27 405v90h68l21 119h82v-119h129v-90h-129v-224q0 -47 13 -67.5t56 -20.5q13 0 34 2.5t43 9.5l21 -93q-30 -11 -63.5 -14t-53.5 -3
q-44 0 -73.5 11.5t-47.5 33t-26 53t-8 71.5v241h-66z" />
    <glyph glyph-name="Tbar" unicode="&#x166;" horiz-adv-x="524" 
d="M320 585v-182h151v-80h-151v-323h-115v323h-151v80h151v182h-191v104h496v-104h-190z" />
    <glyph glyph-name="tbar" unicode="&#x167;" horiz-adv-x="370" 
d="M27 405v90h68l21 119h82v-119h129v-90h-129v-94h129v-76h-129v-54q0 -47 13 -67.5t56 -20.5q13 0 34 2.5t43 9.5l21 -93q-30 -11 -63.5 -14t-53.5 -3q-44 0 -73.5 11.5t-47.5 33t-26 53t-8 71.5v71h-66v76h66v94h-66z" />
    <glyph glyph-name="Utilde" unicode="&#x168;" horiz-adv-x="627" 
d="M574 218q0 -54 -21.5 -96t-57.5 -70.5t-83 -43.5t-98 -15q-52 0 -99 14.5t-82.5 43t-56.5 70.5t-21 96v472h114v-451q0 -38 12 -64.5t32.5 -43.5t46.5 -25t54 -8q27 0 53.5 8t46.5 25t32.5 43.5t12.5 64.5v451h115v-471zM248 876q19 0 37.5 -7.5t36 -16.5t33 -16.5
t27.5 -7.5q16 0 30.5 10.5t31.5 35.5l58 -34q-24 -51 -51.5 -73.5t-60.5 -22.5q-19 0 -37 7t-35 15t-33 15t-30 7q-17 0 -31 -8t-34 -34l-58 34q23 47 52 71.5t64 24.5z" />
    <glyph glyph-name="utilde" unicode="&#x169;" horiz-adv-x="516" 
d="M151 495v-310q0 -50 23 -70t55 -20q55 0 132 54v346h107v-495h-97l-10 48q-58 -35 -93.5 -44.5t-60.5 -9.5q-81 0 -122 49.5t-41 132.5v319h107zM188 706q19 0 37.5 -7.5t36 -16.5t33 -16.5t27.5 -7.5q16 0 30.5 10.5t31.5 35.5l58 -34q-24 -51 -51.5 -73.5t-60.5 -22.5
q-19 0 -37 7t-35 15t-33 15t-30 7q-17 0 -31 -8t-34 -34l-58 34q23 47 52 71.5t64 24.5z" />
    <glyph glyph-name="Umacron" unicode="&#x16a;" horiz-adv-x="627" 
d="M574 218q0 -54 -21.5 -96t-57.5 -70.5t-83 -43.5t-98 -15q-52 0 -99 14.5t-82.5 43t-56.5 70.5t-21 96v472h114v-451q0 -38 12 -64.5t32.5 -43.5t46.5 -25t54 -8q27 0 53.5 8t46.5 25t32.5 43.5t12.5 64.5v451h115v-471zM168 773v89h289v-89h-289z" />
    <glyph glyph-name="umacron" unicode="&#x16b;" horiz-adv-x="516" 
d="M151 495v-310q0 -50 23 -70t55 -20q55 0 132 54v346h107v-495h-97l-10 48q-58 -35 -93.5 -44.5t-60.5 -9.5q-81 0 -122 49.5t-41 132.5v319h107zM115 593v89h290v-89h-290z" />
    <glyph glyph-name="Ubreve" unicode="&#x16c;" horiz-adv-x="627" 
d="M574 218q0 -54 -21.5 -96t-57.5 -70.5t-83 -43.5t-98 -15q-52 0 -99 14.5t-82.5 43t-56.5 70.5t-21 96v472h114v-451q0 -38 12 -64.5t32.5 -43.5t46.5 -25t54 -8q27 0 53.5 8t46.5 25t32.5 43.5t12.5 64.5v451h115v-471zM317 722q-42 0 -69.5 14t-45 35t-25 45.5
t-8.5 45.5h82q0 -10 5 -21.5t13 -21t20.5 -16t27.5 -6.5q17 0 29.5 6.5t21 16t12.5 21t4 21.5h80q-2 -21 -9.5 -45.5t-24 -45.5t-44 -35t-69.5 -14z" />
    <glyph glyph-name="ubreve" unicode="&#x16d;" horiz-adv-x="516" 
d="M151 495v-310q0 -50 23 -70t55 -20q55 0 132 54v346h107v-495h-97l-10 48q-58 -35 -93.5 -44.5t-60.5 -9.5q-81 0 -122 49.5t-41 132.5v319h107zM262 566q-42 0 -69.5 14t-45 35t-25 45t-8.5 45h82q1 -10 5.5 -21t13 -20.5t20.5 -16t27 -6.5q17 0 29.5 6.5t21 16
t12.5 20.5t4 21h81q-2 -21 -10 -45t-24.5 -45t-44 -35t-69.5 -14z" />
    <glyph glyph-name="Uring" unicode="&#x16e;" horiz-adv-x="627" 
d="M574 218q0 -54 -21.5 -96t-57.5 -70.5t-83 -43.5t-98 -15q-52 0 -99 14.5t-82.5 43t-56.5 70.5t-21 96v472h114v-451q0 -38 12 -64.5t32.5 -43.5t46.5 -25t54 -8q27 0 53.5 8t46.5 25t32.5 43.5t12.5 64.5v451h115v-471zM368 808q0 20 -14.5 34t-35.5 14t-36 -14t-15 -34
q0 -21 15 -35.5t36 -14.5t35.5 14.5t14.5 35.5zM207 808q0 22 9 41.5t24 33.5t35 22.5t43 8.5t43 -8.5t35 -22.5t23.5 -33.5t8.5 -41.5q0 -23 -8.5 -42.5t-23.5 -34t-35 -23t-43 -8.5t-43 8.5t-35 23t-24 34t-9 42.5z" />
    <glyph glyph-name="uring" unicode="&#x16f;" horiz-adv-x="516" 
d="M151 495v-310q0 -50 23 -70t55 -20q55 0 132 54v346h107v-495h-97l-10 48q-58 -35 -93.5 -44.5t-60.5 -9.5q-81 0 -122 49.5t-41 132.5v319h107zM310 644q0 20 -14.5 34t-35.5 14t-36 -14t-15 -34q0 -21 15 -35.5t36 -14.5t35.5 14.5t14.5 35.5zM149 644q0 22 9 41.5
t24 33.5t35 22.5t43 8.5t43 -8.5t35 -22.5t23.5 -33.5t8.5 -41.5q0 -23 -8.5 -42.5t-23.5 -34t-35 -23t-43 -8.5t-43 8.5t-35 23t-24 34t-9 42.5z" />
    <glyph glyph-name="Uhungarumlaut" unicode="&#x170;" horiz-adv-x="627" 
d="M574 218q0 -54 -21.5 -96t-57.5 -70.5t-83 -43.5t-98 -15q-52 0 -99 14.5t-82.5 43t-56.5 70.5t-21 96v472h114v-451q0 -38 12 -64.5t32.5 -43.5t46.5 -25t54 -8q27 0 53.5 8t46.5 25t32.5 43.5t12.5 64.5v451h115v-471zM164 781l152 132l74 -72l-180 -108zM339 781
l152 132l74 -72l-180 -108z" />
    <glyph glyph-name="uhungarumlaut" unicode="&#x171;" horiz-adv-x="516" 
d="M151 495v-310q0 -50 23 -70t55 -20q55 0 132 54v346h107v-495h-97l-10 48q-58 -35 -93.5 -44.5t-60.5 -9.5q-81 0 -122 49.5t-41 132.5v319h107zM133 570l76 185l98 -31l-111 -178zM281 570l77 185l98 -31l-112 -178z" />
    <glyph glyph-name="Uogonek" unicode="&#x172;" horiz-adv-x="627" 
d="M249 -94q0 20 7 40.5t25 48.5q-47 4 -88 20.5t-71.5 44.5t-48.5 67.5t-18 89.5v472h114v-451q0 -38 12 -64.5t32.5 -43.5t46.5 -25t54 -8q27 0 53.5 8t46.5 25t32.5 43.5t12.5 64.5v451h115v-471q0 -49 -17.5 -88t-47.5 -67t-70 -45t-85 -22q-17 -24 -24 -41.5t-7 -33.5
q0 -38 42 -38q11 0 25 4.5t34 12.5l23 -58q-21 -12 -46.5 -19.5t-51.5 -7.5q-45 0 -72.5 26.5t-27.5 64.5z" />
    <glyph glyph-name="uogonek" unicode="&#x173;" horiz-adv-x="516" 
d="M332 -94q0 21 8 43.5t30 53.5l-9 45q-58 -35 -93.5 -44.5t-60.5 -9.5q-81 0 -122 49.5t-41 132.5v319h107v-310q0 -50 23 -70t55 -20q55 0 132 54v346h107v-495h-28q-18 -26 -26 -44t-8 -35q0 -38 42 -38q11 0 25 4.5t34 12.5l23 -58q-21 -12 -46.5 -19.5t-51.5 -7.5
q-45 0 -72.5 26.5t-27.5 64.5z" />
    <glyph glyph-name="Wcircumflex" unicode="&#x174;" horiz-adv-x="885" 
d="M439 490l-51 -206l-72 -284h-127l-179 689h123l69 -295l50 -220h6l54 222l74 293h112l77 -305l52 -210h5l48 212l71 303h123l-180 -689h-126l-73 286l-50 204h-6zM441 819l-146 -84l-36 45l150 125h68l146 -124l-37 -46z" />
    <glyph glyph-name="wcircumflex" unicode="&#x175;" horiz-adv-x="719" 
d="M356 305l-50 -160l-47 -145h-104l-140 496h111l43 -170l41 -173h4l57 173l40 122h97l45 -136l50 -161h5l41 176l42 169h108l-135 -496h-105l-49 149l-50 156h-4zM359 648q-6 -4 -26 -19.5t-43 -33.5t-43 -33.5t-26 -19.5l-44 41l149 154h70l145 -152l-46 -43z" />
    <glyph glyph-name="Ycircumflex" unicode="&#x176;" horiz-adv-x="556" 
d="M282 382l66 150l74 157h122l-208 -422v-267h-115v267l-210 422h124l75 -161l65 -146h7zM278 819l-146 -84l-36 45l150 125h68l146 -124l-37 -46z" />
    <glyph glyph-name="ycircumflex" unicode="&#x177;" horiz-adv-x="472" 
d="M106 -200l75 210l-36 29l-135 457h112l53 -203l49 -181h3l63 182l67 202h112l-253 -696h-110zM232 648q-6 -4 -26 -19.5t-43 -33.5t-43 -33.5t-26 -19.5l-44 41l149 154h70l145 -152l-46 -43z" />
    <glyph glyph-name="Ydieresis" unicode="&#x178;" horiz-adv-x="556" 
d="M282 382l66 150l74 157h122l-208 -422v-267h-115v267l-210 422h124l75 -161l65 -146h7zM318 811q0 24 17 41t41 17q25 0 41.5 -17t16.5 -41t-16.5 -41t-41.5 -17q-24 0 -41 17t-17 41zM122 811q0 24 17 41t40 17q25 0 42 -17t17 -41t-17 -41t-42 -17q-23 0 -40 17t-17 41
z" />
    <glyph glyph-name="Zacute" unicode="&#x179;" horiz-adv-x="531" 
d="M35 99l325 487h-312v103h450v-96l-330 -491h329v-102h-462v99zM194 787l168 130l60 -82l-190 -101z" />
    <glyph glyph-name="zacute" unicode="&#x17a;" horiz-adv-x="462" 
d="M39 0v85l254 319h-240v91h371v-85l-253 -317h253v-93h-385zM187 570l76 185l98 -31l-111 -178z" />
    <glyph glyph-name="Zdotaccent" unicode="&#x17b;" horiz-adv-x="531" 
d="M35 99l325 487h-312v103h450v-96l-330 -491h329v-102h-462v99zM283 749q-29 0 -46 18.5t-17 46.5q0 24 17 43t45 19q29 0 47 -19t18 -43q0 -26 -17 -45.5t-47 -19.5z" />
    <glyph glyph-name="zdotaccent" unicode="&#x17c;" horiz-adv-x="462" 
d="M39 0v85l254 319h-240v91h371v-85l-253 -317h253v-93h-385zM248 576q-29 0 -46 18.5t-17 46.5q0 24 17 43t45 19q29 0 47 -19t18 -43q0 -26 -17 -45.5t-47 -19.5z" />
    <glyph glyph-name="Zcaron" unicode="&#x17d;" horiz-adv-x="531" 
d="M35 99l325 487h-312v103h450v-96l-330 -491h329v-102h-462v99zM414 908l37 -46l-145 -124h-68l-150 126l35 44l146 -84z" />
    <glyph glyph-name="zcaron" unicode="&#x17e;" horiz-adv-x="462" 
d="M39 0v85l254 319h-240v91h371v-85l-253 -317h253v-93h-385zM375 737l46 -42l-145 -153h-70l-149 154l44 41q6 -4 26 -19t43 -33t43 -33.5t26 -19.5z" />
    <glyph glyph-name="florin" unicode="&#x192;" horiz-adv-x="517" 
d="M123 424h96l10 67q4 35 15.5 72t33.5 67.5t56 50t85 19.5q49 0 90 -16l-23 -89q-18 7 -35.5 9t-31.5 2q-21 0 -35.5 -10t-24.5 -26t-16 -37t-9 -42q0 -2 -1.5 -12t-3 -21t-3 -21t-1.5 -13h101l2 -88h-114l-30 -215q-6 -46 -18 -85.5t-32.5 -68t-51 -45t-72.5 -16.5
q-22 0 -52.5 6t-53.5 16l29 84q22 -9 37 -11.5t27 -2.5q36 0 54 34.5t26 92.5l30 211h-83z" />
    <glyph glyph-name="Ohorn" unicode="&#x1a0;" horiz-adv-x="640" 
d="M572 223q0 -54 -20 -97t-55.5 -72.5t-83 -45t-101.5 -15.5q-55 0 -102.5 15.5t-82 45t-54.5 72.5t-20 97v245q0 54 20.5 96t55.5 71.5t82 45t101 15.5q47 0 89 -12.5t76 -35.5q36 2 52 21t16 75v28h86v-37q0 -61 -21 -101.5t-67 -57.5q14 -23 21.5 -50.5t7.5 -59.5v-243z
M457 449q0 37 -12 64t-32 44.5t-46.5 25.5t-54.5 8q-29 0 -55 -8t-45.5 -25.5t-31.5 -44.5t-12 -64v-209q0 -38 12 -65t32 -44t46 -25t54 -8t54.5 8t46.5 25t32 44t12 65v209z" />
    <glyph glyph-name="ohorn" unicode="&#x1a1;" horiz-adv-x="556" 
d="M466 175q0 -44 -17.5 -78t-47 -56.5t-67.5 -34t-79 -11.5q-42 0 -80.5 11.5t-67 34t-45.5 56.5t-17 78v144q0 44 17.5 78t46.5 57t67 35t80 12q88 0 144 -44q1 0 2 0.5t2 0.5q30 3 44 23t14 72v27h86v-36q0 -63 -22 -104t-71 -57q11 -30 11 -65v-143zM361 300
q0 28 -9.5 47.5t-24.5 31.5t-34 17.5t-37 5.5t-37 -5.5t-34 -17.5t-24.5 -31.5t-9.5 -47.5v-105q0 -56 31 -79t74 -23q18 0 37 5.5t34 17.5t24.5 31.5t9.5 47.5v105z" />
    <glyph glyph-name="Uhorn" unicode="&#x1af;" horiz-adv-x="694" 
d="M574 218q0 -54 -21.5 -96t-57.5 -70.5t-83 -43.5t-98 -15q-52 0 -99 14.5t-82.5 43t-56.5 70.5t-21 96v472h114v-451q0 -38 12 -64.5t32.5 -43.5t46.5 -25t54 -8q27 0 53.5 8t46.5 25t32.5 43.5t12.5 64.5v451h115v-40q30 3 43 23.5t13 71.5v28h86v-37q0 -77 -33.5 -121
t-108.5 -48v-348v0z" />
    <glyph glyph-name="uhorn" unicode="&#x1b0;" horiz-adv-x="601" 
d="M154 495v-310q0 -50 23 -70t55 -20q55 0 132 54v346h107v-36q26 5 37 25.5t11 68.5v28h86v-37q0 -75 -31 -118.5t-103 -49.5v-376h-97l-10 48q-58 -35 -93.5 -44.5t-60.5 -9.5q-81 0 -122 49.5t-41 132.5v319h107z" />
    <glyph glyph-name="AEacute" unicode="&#x1fc;" horiz-adv-x="991" 
d="M491 0v183q-63 0 -125 0.5t-125 0.5l-114 -184h-126q109 174 217 344.5t217 344.5h523v-104h-353v-189h302v-102h-302v-192h353v-102h-467zM490 586q-49 -77 -97 -153.5t-96 -153.5q48 0 96.5 -0.5t97.5 -0.5v308h-1zM613 787l168 130l60 -82l-190 -101z" />
    <glyph glyph-name="aeacute" unicode="&#x1fd;" horiz-adv-x="805" 
d="M462 216v-29q0 -26 9 -44t24 -29.5t34.5 -17t40.5 -5.5q23 0 55 8t65 37l62 -73q-42 -41 -88.5 -54.5t-93.5 -13.5q-54 0 -99.5 16.5t-74.5 51.5q-10 -6 -20 -12.5t-20 -11.5q-57 -29 -94.5 -36t-63.5 -7q-74 0 -116.5 40t-42.5 109q0 41 18 69t45 45.5t58.5 25.5t58.5 8
h137v30q0 46 -29.5 64t-78.5 18q-25 0 -58.5 -7.5t-70.5 -37.5l-50 79q50 38 97 49.5t90 11.5q107 0 159 -54q27 26 64.5 40t82.5 14t83 -13t65 -37.5t42.5 -59.5t15.5 -80v-94h-306zM356 216h-117q-14 0 -29.5 -2.5t-28.5 -10t-21.5 -20.5t-8.5 -34q0 -28 20 -43t53 -15
q18 0 36 4.5t35.5 11t33 14.5t27.5 15v80zM661 304q0 52 -29 75.5t-70 23.5q-39 0 -69 -24.5t-30 -72.5v-14h198v12zM385 570l76 185l98 -31l-111 -178z" />
    <glyph glyph-name="Oslashacute" unicode="&#x1fe;" horiz-adv-x="625" 
d="M52 24l44 62q-43 55 -43 137v245q0 54 20.5 96t55.5 71.5t82 45t101 15.5q103 0 175 -55l39 56l47 -31l-46 -65q21 -27 33 -61t12 -74v-243q0 -54 -20 -97t-55.5 -72.5t-83 -45t-101.5 -15.5q-106 0 -177 54l-38 -54zM457 449q0 25 -6 45l-250 -353q20 -23 49.5 -33
t61.5 -10q28 0 54.5 8t46.5 25t32 44t12 65v209zM168 240q0 -22 5 -44l249 353q-21 22 -49.5 32t-60.5 10q-29 0 -55 -8t-45.5 -25.5t-31.5 -44.5t-12 -64v-209zM240 787l159 124l69 -76l-184 -99z" />
    <glyph glyph-name="oslashacute" unicode="&#x1ff;" horiz-adv-x="512" 
d="M466 175q0 -44 -17.5 -78t-47 -56.5t-67.5 -34t-79 -11.5t-77 10.5t-64 30.5l-35 -43l-35 29l36 45q-17 21 -26 48t-9 60v144q0 44 17.5 78t46.5 57t67 35t80 12q85 0 141 -41l33 41l36 -28l-36 -45q36 -45 36 -110v-143zM361 300q0 19 -5 36l-176 -218
q14 -14 33.5 -19.5t42.5 -5.5q18 0 37 5.5t34 17.5t24.5 31.5t9.5 47.5v105zM330 376q-16 14 -35.5 20t-38.5 6q-18 0 -37 -5.5t-34 -17.5t-24.5 -31.5t-9.5 -47.5v-105q0 -22 4 -35zM211 569l76 186l98 -31l-112 -178z" />
    <glyph glyph-name="Scommaaccent" unicode="&#x218;" horiz-adv-x="577" 
d="M545 195q0 -48 -19 -85.5t-52.5 -63t-80.5 -39t-102 -13.5q-73 0 -137.5 20.5t-124.5 69.5l64 83q45 -33 95.5 -51.5t101.5 -18.5q68 0 101.5 27.5t33.5 69.5q0 29 -13.5 47t-36.5 30t-52.5 19t-61.5 15q-40 9 -77.5 23t-66 36.5t-46 55t-17.5 79.5q0 44 16 81t46 64
t72 42.5t94 15.5q62 0 122.5 -12.5t115.5 -47.5l-51 -94q-46 28 -91.5 39t-89.5 11q-24 0 -45.5 -6t-38 -18t-26.5 -30.5t-10 -43.5t13 -42t34.5 -28.5t49 -19t57.5 -13.5q49 -11 90 -26t70.5 -38.5t46 -56.5t16.5 -81zM211 -250q24 17 38 33t17 43q-22 2 -36 20t-14 44
t19.5 46t48.5 20q39 0 57.5 -27t18.5 -62q0 -57 -32.5 -100t-80.5 -65z" />
    <glyph glyph-name="scommaaccent" unicode="&#x219;" horiz-adv-x="460" 
d="M232 -6q-54 0 -105 13t-105 56l58 77q37 -31 75 -42.5t80 -11.5q35 0 62.5 15t27.5 46q0 26 -18 38.5t-53 18.5q-36 6 -73 13.5t-67 22.5t-49 40.5t-19 67.5q0 36 15 64.5t40.5 48t58.5 30t70 10.5q57 0 102.5 -11.5t89.5 -43.5l-52 -79q-36 23 -70 31.5t-69 8.5
q-38 0 -59.5 -17t-21.5 -40t21 -33.5t52.5 -17t68.5 -13.5t68.5 -22t52.5 -42.5t21 -74.5q0 -36 -15.5 -64.5t-43 -48t-64.5 -30t-79 -10.5zM156 -250q24 17 38 33t17 43q-22 2 -36 20t-14 44t19.5 46t48.5 20q39 0 57.5 -27t18.5 -62q0 -57 -32.5 -100t-80.5 -65z" />
    <glyph glyph-name="schwa" unicode="&#x259;" horiz-adv-x="500" 
d="M350 282v25q0 52 -28 74.5t-73 22.5q-23 0 -57.5 -8.5t-66.5 -36.5l-58 74q45 42 92 55t96 13q43 0 79.5 -11.5t63.5 -34t42.5 -56.5t15.5 -80v-130q0 -45 -15.5 -81t-43.5 -61t-65.5 -38t-81.5 -13q-45 0 -83 13t-65 37t-42.5 59t-15.5 80v97h306zM151 191
q0 -52 29 -75.5t70 -23.5q42 0 70.5 26t28.5 79v9h-198v-15z" />
    <glyph glyph-name="primemod" unicode="&#x2b9;" horiz-adv-x="274" 
d="M264 679l-143 -281l-74 24l104 291z" />
    <glyph glyph-name="circumflex" unicode="&#x2c6;" horiz-adv-x="499" 
d="M253 648q-6 -4 -26 -19.5t-43 -33.5t-43 -33.5t-26 -19.5l-44 41l149 154h70l145 -152l-46 -43z" />
    <glyph glyph-name="caron" unicode="&#x2c7;" horiz-adv-x="499" 
d="M389 737l46 -42l-145 -153h-70l-149 154l44 41q6 -4 26 -19t43 -33t43 -33.5t26 -19.5z" />
    <glyph glyph-name="breve" unicode="&#x2d8;" horiz-adv-x="518" 
d="M269 566q-42 0 -69.5 14t-45 35t-25 45t-8.5 45h82q1 -10 5.5 -21t13 -20.5t20.5 -16t27 -6.5q17 0 29.5 6.5t21 16t12.5 20.5t4 21h81q-2 -21 -10 -45t-24.5 -45t-44 -35t-69.5 -14z" />
    <glyph glyph-name="dotaccent" unicode="&#x2d9;" horiz-adv-x="441" 
d="M222 576q-29 0 -46 18.5t-17 46.5q0 24 17 43t45 19q29 0 47 -19t18 -43q0 -26 -17 -45.5t-47 -19.5z" />
    <glyph glyph-name="ring" unicode="&#x2da;" horiz-adv-x="499" 
d="M313 644q0 20 -14.5 34t-35.5 14t-36 -14t-15 -34q0 -21 15 -35.5t36 -14.5t35.5 14.5t14.5 35.5zM152 644q0 22 9 41.5t24 33.5t35 22.5t43 8.5t43 -8.5t35 -22.5t23.5 -33.5t8.5 -41.5q0 -23 -8.5 -42.5t-23.5 -34t-35 -23t-43 -8.5t-43 8.5t-35 23t-24 34t-9 42.5z
" />
    <glyph glyph-name="ogonek" unicode="&#x2db;" horiz-adv-x="285" 
d="M58 -96q0 21 8.5 44t31.5 55h68l2 -3q-19 -26 -27.5 -45t-8.5 -36q0 -38 42 -38q11 0 25 4.5t34 12.5l23 -58q-21 -12 -46.5 -19.5t-51.5 -7.5q-45 0 -72.5 26.5t-27.5 64.5z" />
    <glyph glyph-name="tilde" unicode="&#x2dc;" horiz-adv-x="499" 
d="M186 706q19 0 37.5 -7.5t36 -16.5t33 -16.5t27.5 -7.5q16 0 30.5 10.5t31.5 35.5l58 -34q-24 -51 -51.5 -73.5t-60.5 -22.5q-19 0 -37 7t-35 15t-33 15t-30 7q-17 0 -31 -8t-34 -34l-58 34q23 47 52 71.5t64 24.5z" />
    <glyph glyph-name="hungarumlaut" unicode="&#x2dd;" horiz-adv-x="567" 
d="M152 570l76 185l98 -31l-111 -178zM300 570l77 185l98 -31l-112 -178z" />
    <glyph glyph-name="tonos" unicode="&#x384;" horiz-adv-x="499" 
d="M190 570l76 185l98 -31l-111 -178z" />
    <glyph glyph-name="dieresistonos" unicode="&#x385;" horiz-adv-x="506" 
d="M320 632q0 24 17.5 41t41.5 17t41 -17t17 -41t-17 -41t-41 -17t-41.5 17t-17.5 41zM69 632q0 24 17 41t41 17t41 -17t17 -41t-17 -41t-41 -17t-41 17t-17 41zM181 565l66 189l100 -24l-102 -185z" />
    <glyph glyph-name="Alphatonos" unicode="&#x386;" horiz-adv-x="617" 
d="M437 149h-257l-49 -149h-121l241 689h116l241 -689h-124zM213 248h191l-41 129l-53 175h-4l-51 -168zM-39 534l76 185l98 -31l-111 -178z" />
    <glyph glyph-name="anoteleia" unicode="&#x387;" horiz-adv-x="282" 
d="M139 288q-31 0 -49.5 20t-18.5 50q0 27 18.5 47.5t48.5 20.5q32 0 51 -20.5t19 -47.5q0 -29 -18.5 -49.5t-50.5 -20.5z" />
    <glyph glyph-name="Epsilontonos" unicode="&#x388;" horiz-adv-x="567" 
d="M61 689h467v-103h-353v-189h302v-103h-302v-192h353v-102h-467v689zM-146 534l76 185l98 -31l-111 -178z" />
    <glyph glyph-name="Etatonos" unicode="&#x389;" horiz-adv-x="631" 
d="M459 0v298h-289v-298h-114v689h114v-288h289v288h116v-689h-116zM-155 534l76 185l98 -31l-111 -178z" />
    <glyph glyph-name="Iotatonos" unicode="&#x38a;" horiz-adv-x="274" 
d="M194 689v-689h-114v689h114zM-128 534l76 185l98 -31l-111 -178z" />
    <glyph glyph-name="Omicrontonos" unicode="&#x38c;" horiz-adv-x="625" 
d="M572 223q0 -54 -20 -97t-55.5 -72.5t-83 -45t-101.5 -15.5q-55 0 -102.5 15.5t-82 45t-54.5 72.5t-20 97v245q0 54 20.5 96t55.5 71.5t82 45t101 15.5q53 0 100.5 -16t83 -45.5t56 -72t20.5 -96.5v-243zM457 449q0 37 -12 64t-32 44.5t-46.5 25.5t-54.5 8q-29 0 -55 -8
t-45.5 -25.5t-31.5 -44.5t-12 -64v-209q0 -38 12 -65t32 -44t46 -25t54 -8t54.5 8t46.5 25t32 44t12 65v209zM-120 534l76 185l98 -31l-111 -178z" />
    <glyph glyph-name="Upsilontonos" unicode="&#x38e;" horiz-adv-x="556" 
d="M282 382l66 150l74 157h122l-208 -422v-267h-115v267l-210 422h124l75 -161l65 -146h7zM-179 534l76 185l98 -31l-111 -178z" />
    <glyph glyph-name="Omegatonos" unicode="&#x38f;" horiz-adv-x="642" 
d="M369 0v122q38 11 67 44t29 92v190q0 38 -12 65t-32 44.5t-46 25.5t-54 8q-29 0 -55 -8t-46 -25.5t-32 -44.5t-12 -65v-190q0 -30 8 -52.5t21.5 -39.5t31.5 -28t37 -17v-121h-226v101h82q-34 25 -51.5 65t-17.5 85v216q0 54 21 96.5t56.5 72t82.5 45t100 15.5t100 -15.5
t82.5 -45t56 -72t20.5 -96.5v-216q0 -45 -17.5 -85t-50.5 -65h83v-101h-226zM-111 534l76 185l98 -31l-111 -178z" />
    <glyph glyph-name="iotadieresistonos" unicode="&#x390;" horiz-adv-x="254" 
d="M74 0v496h106v-496h-106zM206 632q0 24 17.5 41t41.5 17t41 -17t17 -41t-17 -41t-41 -17t-41.5 17t-17.5 41zM-45 632q0 24 17 41t41 17t41 -17t17 -41t-17 -41t-41 -17t-41 17t-17 41zM67 565l66 189l100 -24l-102 -185z" />
    <glyph glyph-name="Alpha" unicode="&#x391;" horiz-adv-x="617" 
d="M437 149h-257l-49 -149h-121l241 689h116l241 -689h-124zM213 248h191l-41 129l-53 175h-4l-51 -168z" />
    <glyph glyph-name="Beta" unicode="&#x392;" horiz-adv-x="608" 
d="M565 203q0 -39 -12.5 -75.5t-37.5 -65t-62 -45.5t-85 -17h-310v689h298q49 0 86.5 -15t62 -40.5t37 -58.5t12.5 -70q0 -40 -20 -79.5t-65 -64.5q50 -25 73 -69.5t23 -88.5zM438 497q0 46 -28.5 67.5t-79.5 21.5h-157v-177h162q45 0 74 23t29 65zM448 205q0 48 -32.5 76
t-77.5 28h-165v-207h166q54 0 81.5 27.5t27.5 75.5z" />
    <glyph glyph-name="Gamma" unicode="&#x393;" horiz-adv-x="524" 
d="M63 0v689h467v-103h-353v-586h-114z" />
    <glyph glyph-name="Delta" unicode="&#x394;" horiz-adv-x="613" 
d="M304 526l-64 -201l-74 -222h282l-72 217l-66 206h-6zM252 689h111l242 -689h-595z" />
    <glyph glyph-name="Delta" unicode="&#x2206;" horiz-adv-x="613" 
d="M304 526l-64 -201l-74 -222h282l-72 217l-66 206h-6zM252 689h111l242 -689h-595z" />
    <glyph glyph-name="Epsilon" unicode="&#x395;" horiz-adv-x="567" 
d="M61 689h467v-103h-353v-189h302v-103h-302v-192h353v-102h-467v689z" />
    <glyph glyph-name="Zeta" unicode="&#x396;" horiz-adv-x="531" 
d="M35 99l325 487h-312v103h450v-96l-330 -491h329v-102h-462v99z" />
    <glyph glyph-name="Eta" unicode="&#x397;" horiz-adv-x="631" 
d="M459 0v298h-289v-298h-114v689h114v-288h289v288h116v-689h-116z" />
    <glyph glyph-name="Theta" unicode="&#x398;" horiz-adv-x="623" 
d="M420 296h-214v101h214v-101zM572 223q0 -54 -20 -97t-55.5 -72.5t-83 -45t-101.5 -15.5q-55 0 -102.5 15.5t-82 45t-54.5 72.5t-20 97v245q0 54 20.5 96t55.5 71.5t82 45t101 15.5q53 0 100.5 -16t83 -45.5t56 -72t20.5 -96.5v-243zM457 449q0 37 -12 64t-32 44.5
t-46.5 25.5t-54.5 8q-29 0 -55 -8t-45.5 -25.5t-31.5 -44.5t-12 -64v-209q0 -38 12 -65t32 -44t46 -25t54 -8t54.5 8t46.5 25t32 44t12 65v209z" />
    <glyph glyph-name="Iota" unicode="&#x399;" horiz-adv-x="274" 
d="M194 689v-689h-114v689h114z" />
    <glyph glyph-name="Kappa" unicode="&#x39a;" horiz-adv-x="609" 
d="M176 358l110 137l161 194h137l-226 -275l245 -414h-134q-47 81 -93.5 161t-93.5 161q-28 -33 -55.5 -65.5t-54.5 -65.5v-191h-115v689h115v-331h4z" />
    <glyph glyph-name="Lambda" unicode="&#x39b;" horiz-adv-x="613" 
d="M383 314l-71 227h-7l-71 -225l-103 -316h-121l241 689h116l241 -689h-121z" />
    <glyph glyph-name="Mu" unicode="&#x39c;" horiz-adv-x="763" 
d="M587 420l-64 -130l-97 -191h-84l-94 180l-71 141h-4v-420h-114v689h107l131 -262l85 -177h6l84 179l128 260h105v-689h-114v420h-4z" />
    <glyph glyph-name="Nu" unicode="&#x39d;" horiz-adv-x="660" 
d="M173 473v-473h-114v689h106l205 -305l111 -171h6v476h114v-689h-107l-208 310l-106 163h-7z" />
    <glyph glyph-name="Xi" unicode="&#x39e;" horiz-adv-x="554" 
d="M45 0v102h177v194h-124v103h124v187h-177v103h460v-103h-180v-187h128v-103h-128v-194h180v-102h-460z" />
    <glyph glyph-name="Omicron" unicode="&#x39f;" horiz-adv-x="625" 
d="M572 223q0 -54 -20 -97t-55.5 -72.5t-83 -45t-101.5 -15.5q-55 0 -102.5 15.5t-82 45t-54.5 72.5t-20 97v245q0 54 20.5 96t55.5 71.5t82 45t101 15.5q53 0 100.5 -16t83 -45.5t56 -72t20.5 -96.5v-243zM457 449q0 37 -12 64t-32 44.5t-46.5 25.5t-54.5 8q-29 0 -55 -8
t-45.5 -25.5t-31.5 -44.5t-12 -64v-209q0 -38 12 -65t32 -44t46 -25t54 -8t54.5 8t46.5 25t32 44t12 65v209z" />
    <glyph glyph-name="Pi" unicode="&#x3a0;" horiz-adv-x="631" 
d="M459 0v586h-289v-586h-114v689h519v-689h-116z" />
    <glyph glyph-name="Rho" unicode="&#x3a1;" horiz-adv-x="565" 
d="M170 372h158q50 0 79.5 29.5t29.5 77.5t-29.5 77.5t-79.5 29.5h-158v-214zM353 689q50 0 87 -19t61 -49t36 -67.5t12 -74.5t-13.5 -74.5t-39 -68t-62 -49.5t-83.5 -19h-181v-268h-114v689h297z" />
    <glyph glyph-name="Sigma" unicode="&#x3a3;" horiz-adv-x="510" 
d="M30 0v99l157 259l-156 236v95h440v-103h-303l152 -228l-158 -257h318v-101h-450z" />
    <glyph glyph-name="Tau" unicode="&#x3a4;" horiz-adv-x="524" 
d="M320 585v-585h-115v585h-191v104h496v-104h-190z" />
    <glyph glyph-name="Upsilon" unicode="&#x3a5;" horiz-adv-x="556" 
d="M282 382l66 150l74 157h122l-208 -422v-267h-115v267l-210 422h124l75 -161l65 -146h7z" />
    <glyph glyph-name="Phi" unicode="&#x3a6;" horiz-adv-x="782" 
d="M449 663q61 -2 112 -22.5t87 -54t56 -79t20 -97.5v-95q0 -54 -19.5 -100t-55 -80.5t-86.5 -55t-114 -22.5v-57h-115v57q-64 3 -115 23t-86.5 54t-54.5 79.5t-19 99.5v97q0 52 20.5 97.5t57 79t87 54t110.5 22.5v33h115v-33zM611 399q0 36 -12 65t-33 50t-51 32.5
t-66 12.5v-399q35 1 64.5 12.5t51.5 32t34 49.5t12 66v79zM172 320q0 -37 12.5 -66t34.5 -49.5t51.5 -32t63.5 -12.5v399q-35 -1 -64.5 -12.5t-51.5 -32.5t-34 -50t-12 -65v-79z" />
    <glyph glyph-name="Chi" unicode="&#x3a7;" horiz-adv-x="572" 
d="M286 258l-148 -258h-130l216 353l-203 336h131l134 -241l135 241h130l-202 -336l216 -353h-130z" />
    <glyph glyph-name="Psi" unicode="&#x3a8;" horiz-adv-x="769" 
d="M713 369q0 -52 -22 -95t-59.5 -74t-86 -49.5t-102.5 -21.5v-129h-114v129q-55 3 -104 21.5t-85.5 50.5t-58 76t-21.5 97v315h111v-305q0 -36 14.5 -63.5t37.5 -46.5t51 -29.5t55 -12.5v460h114v-460q27 1 55 11t51.5 28t38.5 45t15 62v311h110v-320v0z" />
    <glyph glyph-name="Omega" unicode="&#x3a9;" horiz-adv-x="642" 
d="M369 0v122q38 11 67 44t29 92v190q0 38 -12 65t-32 44.5t-46 25.5t-54 8q-29 0 -55 -8t-46 -25.5t-32 -44.5t-12 -65v-190q0 -30 8 -52.5t21.5 -39.5t31.5 -28t37 -17v-121h-226v101h82q-34 25 -51.5 65t-17.5 85v216q0 54 21 96.5t56.5 72t82.5 45t100 15.5t100 -15.5
t82.5 -45t56 -72t20.5 -96.5v-216q0 -45 -17.5 -85t-50.5 -65h83v-101h-226z" />
    <glyph glyph-name="Iotadieresis" unicode="&#x3aa;" horiz-adv-x="274" 
d="M194 689v-689h-114v689h114zM176 805q0 24 17 41t41 17q25 0 42 -17t17 -41t-17 -41t-42 -17q-24 0 -41 17t-17 41zM-20 805q0 24 17 41t40 17q25 0 42 -17t17 -41t-17 -41t-42 -17q-23 0 -40 17t-17 41z" />
    <glyph glyph-name="Upsilondieresis" unicode="&#x3ab;" horiz-adv-x="556" 
d="M282 382l66 150l74 157h122l-208 -422v-267h-115v267l-210 422h124l75 -161l65 -146h7zM319 805q0 24 17 41t41 17q25 0 42 -17t17 -41t-17 -41t-42 -17q-24 0 -41 17t-17 41zM123 805q0 24 17 41t40 17q25 0 42 -17t17 -41t-17 -41t-42 -17q-23 0 -40 17t-17 41z" />
    <glyph glyph-name="alphatonos" unicode="&#x3ac;" horiz-adv-x="513" 
d="M43 322q0 88 46.5 133.5t121.5 45.5q26 0 61.5 -10.5t86.5 -40.5l10 45h95v-495h-96l-10 42q-52 -29 -88 -38t-62 -9q-78 0 -121.5 47.5t-43.5 130.5v149zM150 187q0 -50 21.5 -70t54.5 -19q27 0 61.5 12.5t70.5 35.5v209q-32 19 -69.5 33t-62.5 14q-33 0 -54.5 -21
t-21.5 -70v-124zM205 570l76 185l98 -31l-111 -178z" />
    <glyph glyph-name="epsilontonos" unicode="&#x3ad;" horiz-adv-x="438" 
d="M422 58q-42 -37 -87.5 -49.5t-95.5 -12.5q-95 0 -144 41t-49 110q0 11 4 26t12.5 30t22.5 29t34 22v2q-21 8 -34.5 19.5t-21 24t-10 26t-2.5 24.5q0 29 12.5 56t36.5 48t58.5 33.5t79.5 12.5q50 0 94 -13t85 -48l-60 -74q-26 23 -55.5 31t-56.5 8q-12 0 -27.5 -4
t-29 -11.5t-23 -18.5t-9.5 -26q0 -24 18.5 -37.5t50.5 -13.5h81v-84h-85q-32 0 -51.5 -15.5t-19.5 -43.5q0 -22 20 -40.5t72 -18.5q26 0 58.5 8t58.5 34zM181 570l76 185l98 -31l-111 -178z" />
    <glyph glyph-name="etatonos" unicode="&#x3ae;" horiz-adv-x="513" 
d="M362 0v309q0 51 -22 70.5t-55 19.5q-27 0 -61 -13t-72 -37v-349h-106v495h96l10 -49q30 18 54.5 29t44 17t35 7.5t28.5 1.5q78 0 116.5 -47t38.5 -130v-324h-107zM194 570l76 185l98 -31l-111 -178z" />
    <glyph glyph-name="iotatonos" unicode="&#x3af;" horiz-adv-x="254" 
d="M74 0v496h106v-496h-106zM85 570l76 185l98 -31l-111 -178z" />
    <glyph glyph-name="upsilondieresistonos" unicode="&#x3b0;" horiz-adv-x="513" 
d="M467 173q0 -45 -18.5 -78t-48.5 -55.5t-68 -33.5t-77 -11t-77 11t-67.5 33.5t-47.5 55.5t-18 78v323h106v-301q0 -28 8.5 -47.5t23 -31.5t33.5 -17.5t40 -5.5q18 0 36.5 5.5t33.5 17.5t24.5 31.5t9.5 47.5v301h107v-323zM320 632q0 24 17.5 41t41.5 17t41 -17t17 -41
t-17 -41t-41 -17t-41.5 17t-17.5 41zM69 632q0 24 17 41t41 17t41 -17t17 -41t-17 -41t-41 -17t-41 17t-17 41zM181 565l66 189l100 -24l-102 -185z" />
    <glyph glyph-name="alpha" unicode="&#x3b1;" horiz-adv-x="513" 
d="M43 322q0 88 46.5 133.5t121.5 45.5q26 0 61.5 -10.5t86.5 -40.5l10 45h95v-495h-96l-10 42q-52 -29 -88 -38t-62 -9q-78 0 -121.5 47.5t-43.5 130.5v149zM150 187q0 -50 21.5 -70t54.5 -19q27 0 61.5 12.5t70.5 35.5v209q-32 19 -69.5 33t-62.5 14q-33 0 -54.5 -21
t-21.5 -70v-124z" />
    <glyph glyph-name="beta" unicode="&#x3b2;" horiz-adv-x="514" 
d="M382 411q23 -8 40 -23.5t27.5 -35.5t15.5 -43t5 -46v-91q0 -83 -44.5 -130t-122.5 -47q-26 0 -63 10.5t-84 37.5l-10 -43h-96v511q0 46 14.5 83.5t41 64t63.5 41t82 14.5q55 0 92.5 -16.5t60.5 -42t33 -56.5t10 -59q0 -14 -3.5 -32t-11 -36t-20 -34t-30.5 -27zM364 264
q0 44 -27.5 67t-69.5 23h-54v85h50q22 0 38 9.5t26.5 24t15.5 30.5t5 30q0 17 -5.5 34t-17.5 30t-30 21t-43 8q-27 0 -45.5 -9t-30 -23.5t-16.5 -32t-5 -34.5v-387q32 -20 68 -32.5t62 -12.5q46 0 62.5 27.5t16.5 66.5v75z" />
    <glyph glyph-name="gamma" unicode="&#x3b3;" horiz-adv-x="469" 
d="M162 411q20 -58 38.5 -125.5t37.5 -125.5h4q7 20 14.5 43t14 47t13.5 47t14 42q14 40 28 78.5t29 77.5h112q-45 -115 -88.5 -240t-86.5 -240v-215h-106v210q-14 40 -29 85t-30 90.5t-30 90t-29 83.5q-6 17 -10.5 26.5t-9.5 14.5t-12.5 6t-17.5 1h-6l-4 42l-4 42
q17 5 32.5 7.5t27.5 2.5q40 0 61.5 -19.5t36.5 -70.5z" />
    <glyph glyph-name="delta" unicode="&#x3b4;" horiz-adv-x="511" 
d="M386 587q-31 19 -56.5 27t-57.5 8q-38 0 -59 -13.5t-21 -39.5q0 -14 11.5 -25.5t29 -21.5t38.5 -18t40 -14q77 -25 117 -72.5t40 -120.5v-118q0 -44 -18 -78.5t-47.5 -58t-68 -35.5t-78.5 -12q-43 0 -81 11.5t-66.5 34.5t-45.5 57t-17 78v126q0 54 27 96.5t71 63.5
q-36 23 -49.5 48.5t-13.5 53.5q0 36 14.5 64t39 46.5t57 28.5t68.5 10q53 0 94.5 -10.5t81.5 -36.5zM362 274q0 59 -29.5 90t-95.5 45q-17 -7 -32 -18t-27 -27t-19 -37.5t-7 -49.5v-81q0 -28 9.5 -48t25 -32.5t34.5 -18.5t37 -6t36.5 6t33.5 18.5t24.5 32.5t9.5 48v78z" />
    <glyph glyph-name="epsilon" unicode="&#x3b5;" horiz-adv-x="438" 
d="M422 58q-42 -37 -87.5 -49.5t-95.5 -12.5q-95 0 -144 41t-49 110q0 11 4 26t12.5 30t22.5 29t34 22v2q-21 8 -34.5 19.5t-21 24t-10 26t-2.5 24.5q0 29 12.5 56t36.5 48t58.5 33.5t79.5 12.5q50 0 94 -13t85 -48l-60 -74q-26 23 -55.5 31t-56.5 8q-12 0 -27.5 -4
t-29 -11.5t-23 -18.5t-9.5 -26q0 -24 18.5 -37.5t50.5 -13.5h81v-84h-85q-32 0 -51.5 -15.5t-19.5 -43.5q0 -22 20 -40.5t72 -18.5q26 0 58.5 8t58.5 34l63 -75v0z" />
    <glyph glyph-name="zeta" unicode="&#x3b6;" horiz-adv-x="409" 
d="M255 -158q3 16 8 37t12 42.5t15 42t16 34.5q-45 3 -92 13t-86 33t-65 61.5t-29 97.5q-2 47 15 100t51 107.5t83.5 107t111.5 98.5h-242v92h383v-83q-65 -48 -120.5 -102t-95 -108t-61 -105.5t-19.5 -93.5q2 -36 18.5 -60.5t43.5 -39t62.5 -20.5t76.5 -6h43l37 -72
q-12 -16 -22.5 -39t-20 -49t-17 -53.5t-13.5 -53.5z" />
    <glyph glyph-name="eta" unicode="&#x3b7;" horiz-adv-x="513" 
d="M362 0v309q0 51 -22 70.5t-55 19.5q-27 0 -61 -13t-72 -37v-349h-106v495h96l10 -49q30 18 54.5 29t44 17t35 7.5t28.5 1.5q78 0 116.5 -47t38.5 -130v-324h-107z" />
    <glyph glyph-name="theta" unicode="&#x3b8;" horiz-adv-x="511" 
d="M467 173q0 -45 -18.5 -78t-48.5 -55.5t-68 -33.5t-77 -11t-76.5 11t-67.5 33.5t-48 55.5t-18 78v359q0 44 18.5 77.5t48.5 56t67.5 34t76.5 11.5q40 0 78 -11.5t67.5 -34t47.5 -56.5t18 -78v-358zM360 324h-209v-129q0 -28 9.5 -47.5t25 -31.5t34.5 -17.5t37 -5.5
t36.5 5.5t33 17.5t24 31.5t9.5 47.5v129zM151 411h209v100q0 28 -9.5 47.5t-24 31.5t-33 17.5t-36.5 5.5t-37 -5.5t-34.5 -17.5t-25 -31.5t-9.5 -47.5v-100z" />
    <glyph glyph-name="iota" unicode="&#x3b9;" horiz-adv-x="254" 
d="M74 0v496h106v-496h-106z" />
    <glyph glyph-name="kappa" unicode="&#x3ba;" horiz-adv-x="504" 
d="M50 0v496h106v-198h63q30 0 54 12t40 56l45 130h112l-51 -144q-12 -36 -28.5 -59.5t-45.5 -33.5q35 -10 51 -35.5t28 -62.5l55 -161h-116l-41 134q-7 23 -16.5 37t-21.5 21.5t-26.5 10t-32.5 2.5h-69v-205h-106z" />
    <glyph glyph-name="lambda" unicode="&#x3bb;" horiz-adv-x="517" 
d="M469 0h-107v346q-36 14 -66.5 21.5t-57.5 7.5q-35 0 -59.5 -21t-24.5 -71v-283h-107v297q0 41 12.5 74t35.5 56t55 35.5t71 12.5q26 0 62.5 -6t78.5 -23v66q0 21 -5 39.5t-16.5 33t-30.5 22.5t-47 8q-35 0 -69.5 -8.5t-63.5 -23.5l-37 85q50 26 96.5 36t91.5 10
q99 0 143.5 -54t44.5 -151v-509z" />
    <glyph glyph-name="nu" unicode="&#x3bd;" horiz-adv-x="474" 
d="M245 139q1 4 5 17.5t9.5 32t12 38.5t12 38.5t9.5 32t6 17.5l57 180h116l-177 -495h-109l-178 495h118l58 -178l56 -178h5z" />
    <glyph glyph-name="xi" unicode="&#x3be;" horiz-adv-x="434" 
d="M268 -154q3 16 8 35.5t11 39.5t13 39t15 34q-51 1 -100.5 12.5t-88 36t-62.5 65.5t-24 103q0 19 5 44.5t18 51.5t34 48.5t54 34.5q-28 10 -46 26.5t-28.5 36t-14.5 39t-4 35.5q0 42 16 75.5t43.5 57t65.5 36t82 12.5q15 0 36 -1t45 -5t49.5 -12.5t48.5 -23.5l-43 -85
q-39 23 -74 28.5t-62 5.5q-47 0 -76.5 -27t-29.5 -65q0 -21 9.5 -38t25.5 -29t37 -18.5t44 -6.5h104v-83h-122q-26 0 -47 -11.5t-37 -30t-24.5 -42t-8.5 -48.5q0 -44 20.5 -70t53 -39.5t71.5 -17.5t77 -4q9 0 17.5 0.5t17.5 0.5l37 -72q-12 -16 -22.5 -38t-20 -47t-17.5 -52
t-13 -52z" />
    <glyph glyph-name="omicron" unicode="&#x3bf;" horiz-adv-x="512" 
d="M466 175q0 -44 -17.5 -78t-47 -56.5t-67.5 -34t-79 -11.5q-42 0 -80.5 11.5t-67 34t-45.5 56.5t-17 78v144q0 44 17.5 78t46.5 57t67 35t80 12q45 0 83 -12t66.5 -35.5t44.5 -57.5t16 -78v-143zM361 300q0 28 -9.5 47.5t-24.5 31.5t-34 17.5t-37 5.5t-37 -5.5t-34 -17.5
t-24.5 -31.5t-9.5 -47.5v-105q0 -56 31 -79t74 -23q18 0 37 5.5t34 17.5t24.5 31.5t9.5 47.5v105z" />
    <glyph glyph-name="pi" unicode="&#x3c0;" horiz-adv-x="517" 
d="M363 0v402h-208v-402h-106v495h421v-495h-107z" />
    <glyph glyph-name="rho" unicode="&#x3c1;" horiz-adv-x="505" 
d="M464 172q0 -83 -45 -130.5t-123 -47.5q-26 0 -65 5t-81 26v-224h-107v521q0 44 18.5 77.5t48.5 56t67.5 34t76.5 11.5t76.5 -11.5t67 -34t48 -56.5t18.5 -78v-149zM149 126q35 -18 69 -24.5t61 -6.5q34 -1 56.5 20.5t22.5 71.5v114q0 28 -9.5 47.5t-24.5 31.5t-33.5 17.5
t-36.5 5.5t-37 -5.5t-34 -17.5t-24.5 -31.5t-9.5 -47.5v-175z" />
    <glyph glyph-name="sigma1" unicode="&#x3c2;" horiz-adv-x="460" 
d="M232 -6q-54 0 -105 13t-105 56l58 77q37 -31 75 -42.5t80 -11.5q35 0 62.5 15t27.5 46q0 26 -18 38.5t-53 18.5q-36 6 -73 13.5t-67 22.5t-49 40.5t-19 67.5q0 36 15 64.5t40.5 48t58.5 30t70 10.5q57 0 102.5 -12t89.5 -44l-52 -79q-36 23 -70 32t-69 9q-38 0 -59.5 -17
t-21.5 -40t21 -33.5t52.5 -17t68.5 -13.5t68.5 -22t52.5 -42.5t21 -74.5q0 -36 -15.5 -64.5t-43 -48t-64.5 -30t-79 -10.5z" />
    <glyph glyph-name="sigma" unicode="&#x3c3;" horiz-adv-x="527" 
d="M422 402q19 -15 30.5 -37t11.5 -48v-145q0 -45 -19 -78t-49 -55t-67.5 -33t-74.5 -11q-38 0 -75.5 11t-67.5 33t-49 55t-19 78v145q0 44 19 77.5t49.5 56t68 34t74.5 11.5q63 0 126.5 -0.5t127.5 -0.5v-93h-86zM359 296q0 28 -9.5 47.5t-24.5 31.5t-34 17.5t-37 5.5
t-37 -5.5t-34 -17.5t-24.5 -31.5t-9.5 -47.5v-101q0 -28 9.5 -47.5t24.5 -31.5t34 -17.5t37 -5.5t37 5.5t34 17.5t24.5 31.5t9.5 47.5v101z" />
    <glyph glyph-name="tau" unicode="&#x3c4;" horiz-adv-x="396" 
d="M18 406v90h340v-90h-139v-225q0 -26 5 -43t14 -27t23 -13.5t32 -3.5q16 0 35.5 2t41.5 5l13 -89q-30 -11 -62.5 -14t-51.5 -3q-44 0 -73.5 10t-47.5 29.5t-26 49.5t-8 70l-1 252h-95z" />
    <glyph glyph-name="upsilon" unicode="&#x3c5;" horiz-adv-x="513" 
d="M467 173q0 -45 -18.5 -78t-48.5 -55.5t-68 -33.5t-77 -11t-77 11t-67.5 33.5t-47.5 55.5t-18 78v323h106v-301q0 -28 8.5 -47.5t23 -31.5t33.5 -17.5t40 -5.5q18 0 36.5 5.5t33.5 17.5t24.5 31.5t9.5 47.5v301h107v-323v0z" />
    <glyph glyph-name="phi" unicode="&#x3c6;" horiz-adv-x="653" 
d="M378 -5q0 -49 0.5 -97t0.5 -97h-107v194q-44 0 -85 13t-73 37t-51 58t-19 77v138q0 36 13 65.5t35 52t50 36.5t58 20q5 -24 9.5 -48.5t9.5 -48.5q-26 -8 -47.5 -32t-21.5 -66v-97q0 -21 9.5 -40.5t26 -34t38.5 -23.5t48 -10v360q45 25 84 37t79 12q37 0 69.5 -13
t56.5 -37t37.5 -57.5t13.5 -74.5v-139q0 -46 -21.5 -80.5t-55.5 -58t-75.5 -35t-81.5 -11.5zM506 306q0 50 -22.5 70t-53.5 20q-11 0 -24.5 -3.5t-26.5 -8.5v-291q26 0 49 5.5t40.5 18.5t27.5 33.5t10 49.5v106z" />
    <glyph glyph-name="chi" unicode="&#x3c7;" horiz-adv-x="470" 
d="M337 0l-104 171l-106 -171h-126l175 253l-166 243h127l96 -161l98 161h127l-168 -241l175 -255h-128z" />
    <glyph glyph-name="psi" unicode="&#x3c8;" horiz-adv-x="657" 
d="M609 185q0 -46 -19.5 -81.5t-51.5 -59.5t-73 -36.5t-84 -12.5l1 -195h-106v196q-42 0 -83 12.5t-73.5 36.5t-52 58.5t-19.5 77.5v314h105v-288q0 -53 35 -83.5t88 -30.5v402h106v-402q53 0 87.5 30t34.5 84v288h105v-310v0z" />
    <glyph glyph-name="omega" unicode="&#x3c9;" horiz-adv-x="776" 
d="M387 71q-26 -37 -64.5 -56.5t-82.5 -19.5q-39 0 -74 11.5t-62 34t-43 56t-16 78.5v144q0 39 14 70t37 53.5t53 36.5t63 19l17 -95q-32 -6 -55.5 -31t-23.5 -74v-100q0 -56 28 -80.5t65 -24.5t64.5 24.5t27.5 80.5l1 163h105v-163q0 -48 24.5 -76.5t68.5 -28.5
q37 0 64.5 24.5t27.5 80.5v100q0 48 -22 73t-53 31l16 96q32 -5 61.5 -19t52.5 -36.5t37 -53.5t14 -70v-143q0 -45 -16.5 -78.5t-43.5 -56.5t-62.5 -34.5t-74.5 -11.5q-43 0 -84.5 18.5t-62.5 57.5h-1z" />
    <glyph glyph-name="iotadieresis" unicode="&#x3ca;" horiz-adv-x="254" 
d="M74 0v496h106v-496h-106zM172 632q0 24 17 41t41 17q25 0 42 -17t17 -41t-17 -41t-42 -17q-24 0 -41 17t-17 41zM-24 632q0 24 17 41t40 17q25 0 42 -17t17 -41t-17 -41t-42 -17q-23 0 -40 17t-17 41z" />
    <glyph glyph-name="upsilondieresis" unicode="&#x3cb;" horiz-adv-x="513" 
d="M467 173q0 -45 -18.5 -78t-48.5 -55.5t-68 -33.5t-77 -11t-77 11t-67.5 33.5t-47.5 55.5t-18 78v323h106v-301q0 -28 8.5 -47.5t23 -31.5t33.5 -17.5t40 -5.5q18 0 36.5 5.5t33.5 17.5t24.5 31.5t9.5 47.5v301h107v-323zM294 632q0 24 17 41t41 17q25 0 42 -17t17 -41
t-17 -41t-42 -17q-24 0 -41 17t-17 41zM98 632q0 24 17 41t40 17q25 0 42 -17t17 -41t-17 -41t-42 -17q-23 0 -40 17t-17 41z" />
    <glyph glyph-name="omicrontonos" unicode="&#x3cc;" horiz-adv-x="512" 
d="M466 175q0 -44 -17.5 -78t-47 -56.5t-67.5 -34t-79 -11.5q-42 0 -80.5 11.5t-67 34t-45.5 56.5t-17 78v144q0 44 17.5 78t46.5 57t67 35t80 12q45 0 83 -12t66.5 -35.5t44.5 -57.5t16 -78v-143zM361 300q0 28 -9.5 47.5t-24.5 31.5t-34 17.5t-37 5.5t-37 -5.5t-34 -17.5
t-24.5 -31.5t-9.5 -47.5v-105q0 -56 31 -79t74 -23q18 0 37 5.5t34 17.5t24.5 31.5t9.5 47.5v105zM211 569l76 186l98 -31l-112 -178z" />
    <glyph glyph-name="upsilontonos" unicode="&#x3cd;" horiz-adv-x="513" 
d="M467 173q0 -45 -18.5 -78t-48.5 -55.5t-68 -33.5t-77 -11t-77 11t-67.5 33.5t-47.5 55.5t-18 78v323h106v-301q0 -28 8.5 -47.5t23 -31.5t33.5 -17.5t40 -5.5q18 0 36.5 5.5t33.5 17.5t24.5 31.5t9.5 47.5v301h107v-323zM209 570l76 185l98 -31l-111 -178z" />
    <glyph glyph-name="omegatonos" unicode="&#x3ce;" horiz-adv-x="776" 
d="M387 71q-26 -37 -64.5 -56.5t-82.5 -19.5q-39 0 -74 11.5t-62 34t-43 56t-16 78.5v144q0 39 14 70t37 53.5t53 36.5t63 19l17 -95q-32 -6 -55.5 -31t-23.5 -74v-100q0 -56 28 -80.5t65 -24.5t64.5 24.5t27.5 80.5l1 163h105v-163q0 -48 24.5 -76.5t68.5 -28.5
q37 0 64.5 24.5t27.5 80.5v100q0 48 -22 73t-53 31l16 96q32 -5 61.5 -19t52.5 -36.5t37 -53.5t14 -70v-143q0 -45 -16.5 -78.5t-43.5 -56.5t-62.5 -34.5t-74.5 -11.5q-43 0 -84.5 18.5t-62.5 57.5h-1zM336 570l76 185l98 -31l-111 -178z" />
    <glyph glyph-name="afii10023" unicode="&#x401;" horiz-adv-x="567" 
d="M61 689h467v-103h-353v-189h302v-103h-302v-192h353v-102h-467v689zM341 811q0 24 17 41t41 17q25 0 41.5 -17t16.5 -41t-16.5 -41t-41.5 -17q-24 0 -41 17t-17 41zM145 811q0 24 17 41t40 17q25 0 42 -17t17 -41t-17 -41t-42 -17q-23 0 -40 17t-17 41z" />
    <glyph glyph-name="afii10051" unicode="&#x402;" horiz-adv-x="726" 
d="M568 246q0 69 -30 97.5t-90 28.5q-36 0 -77.5 -15.5t-74.5 -36.5v-320h-115v585h-171v104h529v-104h-243v-159q43 24 89.5 37.5t88.5 13.5q108 0 159 -56.5t51 -153.5v-126q0 -54 -20 -97t-54.5 -72t-82.5 -44.5t-103 -15.5v102q30 0 56.5 8t46 25.5t30.5 44t11 64.5v90
v0z" />
    <glyph glyph-name="afii10052" unicode="&#x403;" horiz-adv-x="524" 
d="M63 0v689h467v-103h-353v-586h-114zM213 787l168 130l60 -82l-190 -101z" />
    <glyph glyph-name="afii10053" unicode="&#x404;" horiz-adv-x="538" 
d="M453 542q-29 25 -68.5 37t-74.5 12q-26 0 -51 -8t-45 -25t-32.5 -44t-12.5 -65v-47h230v-99h-230v-63q0 -38 12.5 -65t33 -44t45.5 -25t50 -8q37 0 75 10.5t72 37.5l55 -88q-35 -29 -88.5 -47t-113.5 -18q-52 0 -98.5 14.5t-81.5 43t-55.5 70.5t-20.5 96v253
q0 54 21.5 96t56.5 71t81 44t95 15q57 0 109 -16t92 -49z" />
    <glyph glyph-name="afii10054" unicode="&#x405;" horiz-adv-x="577" 
d="M545 195q0 -48 -19 -85.5t-52.5 -63t-80.5 -39t-102 -13.5q-73 0 -137.5 20.5t-124.5 69.5l64 83q45 -33 95.5 -51.5t101.5 -18.5q68 0 101.5 27.5t33.5 69.5q0 29 -13.5 47t-36.5 30t-52.5 19t-61.5 15q-40 9 -77.5 23t-66 36.5t-46 55t-17.5 79.5q0 44 16 81t46 64
t72 42.5t94 15.5q62 0 122.5 -12.5t115.5 -47.5l-51 -94q-46 28 -91.5 39t-89.5 11q-24 0 -45.5 -6t-38 -18t-26.5 -30.5t-10 -43.5t13 -42t34.5 -28.5t49 -19t57.5 -13.5q49 -11 90 -26t70.5 -38.5t46 -56.5t16.5 -81z" />
    <glyph glyph-name="afii10055" unicode="&#x406;" horiz-adv-x="274" 
d="M194 689v-689h-114v689h114z" />
    <glyph glyph-name="afii10056" unicode="&#x407;" horiz-adv-x="274" 
d="M194 689v-689h-114v689h114zM179 811q0 24 17 41t41 17q25 0 42 -17t17 -41t-17 -41t-42 -17q-24 0 -41 17t-17 41zM-17 811q0 24 17 41t40 17q25 0 42 -17t17 -41t-17 -41t-42 -17q-23 0 -40 17t-17 41z" />
    <glyph glyph-name="afii10057" unicode="&#x408;" horiz-adv-x="527" 
d="M451 219q0 -54 -19.5 -96t-53 -71t-77 -44t-91.5 -15q-26 0 -53.5 3.5t-53.5 11t-50 18.5t-43 25l53 90q35 -24 67.5 -33.5t63.5 -9.5t57 8t45 25t29.5 45t10.5 69v444h115v-470v0z" />
    <glyph glyph-name="afii10058" unicode="&#x409;" horiz-adv-x="932" 
d="M913 208q0 -37 -11.5 -74t-36.5 -67t-63 -48.5t-92 -18.5h-294v585h-162v-200q0 -90 -10 -159t-34.5 -118.5t-65.5 -80.5t-103 -46l-34 91q41 15 67.5 38t41.5 60t21 89.5t6 126.5v303h388v-274h175q48 0 86.5 -16.5t65.5 -45t41 -66t14 -79.5zM801 208q0 49 -31.5 76.5
t-81.5 27.5h-157v-209h159q50 0 80.5 28.5t30.5 76.5z" />
    <glyph glyph-name="afii10059" unicode="&#x40a;" horiz-adv-x="928" 
d="M405 0v307h-235v-307h-114v689h114v-279h235v279h115v-278h176q48 0 86 -16t65 -43.5t41 -64.5t14 -78q0 -37 -11.5 -74.5t-36 -67.5t-63 -48.5t-91.5 -18.5h-295zM520 103h159q50 0 80.5 29t30.5 77t-31 73.5t-82 25.5h-157v-205z" />
    <glyph glyph-name="afii10060" unicode="&#x40b;" horiz-adv-x="726" 
d="M568 0v232q0 71 -24.5 105.5t-91.5 34.5q-36 0 -79.5 -15.5t-76.5 -36.5v-320h-115v585h-171v104h529v-104h-243v-157q38 21 85 35t89 14q60 0 101 -16t66 -45t36 -69.5t11 -89.5v-257h-116z" />
    <glyph glyph-name="afii10061" unicode="&#x40c;" horiz-adv-x="595" 
d="M58 0v689h114v-287h89q18 0 35.5 3.5t33.5 13.5t29.5 28.5t23.5 48.5l62 193h113l-62 -201q-16 -51 -41 -85t-57 -45q43 -14 67 -49.5t39 -86.5l66 -222h-122l-58 203q-9 31 -22 50.5t-29 30.5t-34.5 14.5t-38.5 3.5h-94v-302h-114zM202 787l168 130l60 -82l-190 -101z
" />
    <glyph glyph-name="afii10062" unicode="&#x40e;" horiz-adv-x="544" 
d="M328 137q-17 -44 -35 -72t-39 -44.5t-45 -22.5t-51 -6h-75v97h60q25 0 40 9t28 35l9 18q-54 134 -106 268.5t-105 269.5h119q3 -9 14.5 -39.5t26.5 -72t32 -88t32 -88t26 -73t15 -41.5h5q5 16 16.5 48t26 72t30 84t30 83t25.5 70t16 45h114zM279 703q-42 0 -69.5 14
t-45 35t-25 45t-8.5 45h82q1 -10 5.5 -21t13 -20.5t20.5 -16t27 -6.5q17 0 29.5 6.5t21 16t12.5 20.5t4 21h81q-2 -21 -10 -45t-24.5 -45t-44 -35t-69.5 -14z" />
    <glyph glyph-name="afii10145" unicode="&#x40f;" horiz-adv-x="631" 
d="M575 689v-689h-200v-171h-122v171h-197v689h114v-586h289v586h116z" />
    <glyph glyph-name="afii10017" unicode="&#x410;" horiz-adv-x="617" 
d="M437 149h-257l-49 -149h-121l241 689h116l241 -689h-124zM213 248h191l-41 129l-53 175h-4l-51 -168z" />
    <glyph glyph-name="afii10018" unicode="&#x411;" horiz-adv-x="578" 
d="M56 689h424v-104h-310v-170h174q50 0 89 -16.5t65.5 -45t40.5 -66t14 -78.5q0 -37 -12 -74.5t-37 -67.5t-63.5 -48.5t-92.5 -18.5h-292v689zM170 103h158q50 0 81.5 29t31.5 77t-32.5 75.5t-82.5 27.5h-156v-209z" />
    <glyph glyph-name="afii10019" unicode="&#x412;" horiz-adv-x="608" 
d="M565 203q0 -39 -12.5 -75.5t-37.5 -65t-62 -45.5t-85 -17h-310v689h298q49 0 86.5 -15t62 -40.5t37 -58.5t12.5 -70q0 -40 -20 -79.5t-65 -64.5q50 -25 73 -69.5t23 -88.5zM438 497q0 46 -28.5 67.5t-79.5 21.5h-157v-177h162q45 0 74 23t29 65zM448 205q0 48 -32.5 76
t-77.5 28h-165v-207h166q54 0 81.5 27.5t27.5 75.5z" />
    <glyph glyph-name="afii10020" unicode="&#x413;" horiz-adv-x="524" 
d="M63 0v689h467v-103h-353v-586h-114z" />
    <glyph glyph-name="afii10021" unicode="&#x414;" horiz-adv-x="710" 
d="M61 103q23 17 39.5 41t27.5 60t17.5 86.5t9.5 119.5l12 279h450q0 -148 0.5 -294t0.5 -293h58v-253h-107v151h-452v-151h-107v254h51zM270 586l-9 -181q-3 -55 -6 -100t-10 -82t-18 -67t-30 -55h306v485h-233z" />
    <glyph glyph-name="afii10022" unicode="&#x415;" horiz-adv-x="567" 
d="M61 689h467v-103h-353v-189h302v-103h-302v-192h353v-102h-467v689z" />
    <glyph glyph-name="afii10024" unicode="&#x416;" horiz-adv-x="900" 
d="M393 0v302h-66q-21 0 -39.5 -3.5t-34 -14.5t-28.5 -30.5t-22 -50.5l-58 -203h-123l66 221q15 51 39.5 87t67.5 50q-33 11 -58 44t-40 84l-63 203h115l61 -193q10 -31 23.5 -49.5t30 -28.5t34.5 -13t36 -3h59v287h114v-287h59q18 0 36 3t34.5 13t30 28.5t23.5 49.5l61 193
h115l-63 -203q-15 -51 -40 -84t-58 -44q43 -14 67.5 -50t39.5 -87l66 -221h-123l-58 203q-9 31 -22 50.5t-29 30.5t-34 14.5t-39 3.5h-66v-302h-114z" />
    <glyph glyph-name="afii10025" unicode="&#x417;" horiz-adv-x="535" 
d="M256 695q45 0 86 -9.5t73 -31.5t51 -56.5t19 -84.5q0 -51 -25.5 -91.5t-72.5 -59.5q54 -19 77.5 -62.5t23.5 -92.5q0 -56 -21 -96.5t-56 -66.5t-81.5 -38.5t-97.5 -12.5q-66 0 -126.5 19.5t-96.5 50.5l59 84q15 -12 35 -21.5t41.5 -16.5t43.5 -11t40 -4q69 0 107.5 31
t38.5 83q0 51 -31.5 77t-85.5 26h-86v93h81q22 0 43 6.5t38 19.5t27.5 32t10.5 45q0 24 -10 40.5t-27.5 27.5t-40.5 16t-49 5q-18 0 -38.5 -3.5t-41 -10.5t-39 -16.5t-32.5 -21.5l-58 83q42 32 95.5 50t125.5 18z" />
    <glyph glyph-name="afii10026" unicode="&#x418;" horiz-adv-x="660" 
d="M480 492q-20 -33 -40.5 -65.5t-41.5 -64.5q-7 -11 -25 -39t-41.5 -64.5t-50 -77.5t-50.5 -77.5t-42 -64.5t-25 -39h-105v689h114v-490h5l315 490h107v-689h-114v492h-6z" />
    <glyph glyph-name="afii10027" unicode="&#x419;" horiz-adv-x="660" 
d="M480 492q-20 -33 -40.5 -65.5t-41.5 -64.5q-7 -11 -25 -39t-41.5 -64.5t-50 -77.5t-50.5 -77.5t-42 -64.5t-25 -39h-105v689h114v-490h5l315 490h107v-689h-114v492h-6zM328 717q-42 0 -69.5 14t-45 35t-25 45t-8.5 45h82q1 -10 5.5 -21t13 -20.5t20.5 -16t27 -6.5
q17 0 29.5 6.5t21 16t12.5 20.5t4 21h81q-2 -21 -10 -45t-24.5 -45t-44 -35t-69.5 -14z" />
    <glyph glyph-name="afii10028" unicode="&#x41a;" horiz-adv-x="595" 
d="M58 0v689h114v-287h89q18 0 35.5 3.5t33.5 13.5t29.5 28.5t23.5 48.5l62 193h113l-62 -201q-16 -51 -41 -85t-57 -45q43 -14 67 -49.5t39 -86.5l66 -222h-122l-58 203q-9 31 -22 50.5t-29 30.5t-34.5 14.5t-38.5 3.5h-94v-302h-114z" />
    <glyph glyph-name="afii10029" unicode="&#x41b;" horiz-adv-x="635" 
d="M247 586v-201q0 -92 -11 -161t-36.5 -118.5t-66.5 -80t-101 -45.5l-35 95q39 16 65.5 39.5t42.5 59t22.5 87t6.5 125.5v303h439v-689h-117v586h-209z" />
    <glyph glyph-name="afii10030" unicode="&#x41c;" horiz-adv-x="763" 
d="M587 420l-64 -130l-97 -191h-84l-94 180l-71 141h-4v-420h-114v689h107l131 -262l85 -177h6l84 179l128 260h105v-689h-114v420h-4z" />
    <glyph glyph-name="afii10031" unicode="&#x41d;" horiz-adv-x="631" 
d="M459 0v298h-289v-298h-114v689h114v-288h289v288h116v-689h-116z" />
    <glyph glyph-name="afii10032" unicode="&#x41e;" horiz-adv-x="625" 
d="M572 223q0 -54 -20 -97t-55.5 -72.5t-83 -45t-101.5 -15.5q-55 0 -102.5 15.5t-82 45t-54.5 72.5t-20 97v245q0 54 20.5 96t55.5 71.5t82 45t101 15.5q53 0 100.5 -16t83 -45.5t56 -72t20.5 -96.5v-243zM457 449q0 37 -12 64t-32 44.5t-46.5 25.5t-54.5 8q-29 0 -55 -8
t-45.5 -25.5t-31.5 -44.5t-12 -64v-209q0 -38 12 -65t32 -44t46 -25t54 -8t54.5 8t46.5 25t32 44t12 65v209z" />
    <glyph glyph-name="afii10033" unicode="&#x41f;" horiz-adv-x="631" 
d="M459 0v586h-289v-586h-114v689h519v-689h-116z" />
    <glyph glyph-name="afii10034" unicode="&#x420;" horiz-adv-x="565" 
d="M170 372h158q50 0 79.5 29.5t29.5 77.5t-29.5 77.5t-79.5 29.5h-158v-214zM353 689q50 0 87 -19t61 -49t36 -67.5t12 -74.5t-13.5 -74.5t-39 -68t-62 -49.5t-83.5 -19h-181v-268h-114v689h297z" />
    <glyph glyph-name="afii10035" unicode="&#x421;" horiz-adv-x="544" 
d="M457 542q-29 25 -68 37t-76 12q-26 0 -51.5 -8t-45.5 -25t-32.5 -44t-12.5 -65v-209q0 -38 12.5 -65t33 -44t45.5 -25t50 -8q37 0 75 10.5t72 37.5l54 -88q-35 -29 -88 -47t-113 -18q-50 0 -96 14.5t-81.5 43t-57 70.5t-21.5 96v255q0 54 21.5 95.5t57 70t81.5 43.5
t95 15q57 0 109.5 -16t92.5 -49z" />
    <glyph glyph-name="afii10036" unicode="&#x422;" horiz-adv-x="524" 
d="M320 585v-585h-115v585h-191v104h496v-104h-190z" />
    <glyph glyph-name="afii10037" unicode="&#x423;" horiz-adv-x="544" 
d="M328 137q-17 -44 -35 -72t-39 -44.5t-45 -22.5t-51 -6h-75v97h60q25 0 40 9t28 35l9 18q-54 134 -106 268.5t-105 269.5h119q3 -9 14.5 -39.5t26.5 -72t32 -88t32 -88t26 -73t15 -41.5h5q5 16 16.5 48t26 72t30 84t30 83t25.5 70t16 45h114z" />
    <glyph glyph-name="afii10038" unicode="&#x424;" horiz-adv-x="782" 
d="M449 663q61 -2 112 -22.5t87 -54t56 -79t20 -97.5v-95q0 -54 -19.5 -100t-55 -80.5t-86.5 -55t-114 -22.5v-57h-115v57q-64 3 -115 23t-86.5 54t-54.5 79.5t-19 99.5v97q0 52 20.5 97.5t57 79t87 54t110.5 22.5v33h115v-33zM611 399q0 36 -12 65t-33 50t-51 32.5
t-66 12.5v-399q35 1 64.5 12.5t51.5 32t34 49.5t12 66v79zM172 320q0 -37 12.5 -66t34.5 -49.5t51.5 -32t63.5 -12.5v399q-35 -1 -64.5 -12.5t-51.5 -32.5t-34 -50t-12 -65v-79z" />
    <glyph glyph-name="afii10039" unicode="&#x425;" horiz-adv-x="572" 
d="M286 258l-148 -258h-130l216 353l-203 336h131l134 -241l135 241h130l-202 -336l216 -353h-130z" />
    <glyph glyph-name="afii10040" unicode="&#x426;" horiz-adv-x="652" 
d="M575 689v-587h59v-254h-108v152h-470v689h114v-587h289v587h116z" />
    <glyph glyph-name="afii10041" unicode="&#x427;" horiz-adv-x="600" 
d="M143 690v-198q0 -74 36.5 -107t107.5 -33q39 0 77 14.5t66 32.5v291h115v-689h-116v293q-34 -20 -75 -32t-84 -12q-117 0 -179.5 59.5t-62.5 168.5v212h115z" />
    <glyph glyph-name="afii10042" unicode="&#x428;" horiz-adv-x="893" 
d="M837 689v-689h-780v689h114v-587h218v587h113v-587h220v587h115z" />
    <glyph glyph-name="afii10043" unicode="&#x429;" horiz-adv-x="911" 
d="M502 102h219v587h116v-587h58v-254h-107v152h-731v689h114v-587h218v587h113v-587z" />
    <glyph glyph-name="afii10044" unicode="&#x42a;" horiz-adv-x="751" 
d="M221 0v587h-213v102h327v-274h175q48 0 86.5 -16.5t65.5 -45t41.5 -66t14.5 -78.5q0 -37 -12 -74.5t-36.5 -67.5t-63 -48.5t-92.5 -18.5h-293zM335 103h159q50 0 81 29t31 77t-32 75.5t-82 27.5h-157v-209z" />
    <glyph glyph-name="afii10045" unicode="&#x42b;" horiz-adv-x="804" 
d="M174 103h159q50 0 81 29t31 77t-32 75.5t-82 27.5h-157v-209zM60 0v689h114v-274h175q48 0 86.5 -16.5t65.5 -45t41.5 -66t14.5 -78.5q0 -37 -12 -74.5t-36.5 -67.5t-63 -48.5t-92.5 -18.5h-293zM743 689v-689h-114v689h114z" />
    <glyph glyph-name="afii10046" unicode="&#x42c;" horiz-adv-x="582" 
d="M174 103h159q50 0 81 29t31 77t-32 75.5t-82 27.5h-157v-209zM60 0v689h114v-274h175q48 0 86.5 -16.5t65.5 -45t41.5 -66t14.5 -78.5q0 -37 -12 -74.5t-36.5 -67.5t-63 -48.5t-92.5 -18.5h-293z" />
    <glyph glyph-name="afii10047" unicode="&#x42d;" horiz-adv-x="538" 
d="M41 634q82 62 203 62q54 0 97.5 -13.5t75 -41t48.5 -69.5t17 -100v-254q0 -54 -21 -96t-56 -70.5t-81 -43.5t-97 -15q-60 0 -114 18t-89 47l55 88q32 -28 71.5 -38t76.5 -10q28 0 53.5 8t45 25t30.5 44t11 65v70h-245v99h245v39q0 77 -37 110t-98 33q-36 0 -71.5 -12
t-64.5 -35z" />
    <glyph glyph-name="afii10048" unicode="&#x42e;" horiz-adv-x="804" 
d="M749 223q0 -54 -17.5 -97t-50 -72.5t-77 -45t-98.5 -15.5q-56 0 -100.5 15.5t-76.5 45t-49 72.5t-17 97v75h-87v-298h-114v689h114v-288h87v67q0 54 17.5 96t50 71.5t77 45t98.5 15.5q53 0 97.5 -16t77 -45.5t50.5 -72t18 -96.5v-243zM634 449q0 75 -35.5 108.5
t-92.5 33.5t-92.5 -33.5t-35.5 -108.5v-209q0 -77 36 -109.5t92 -32.5t92 32.5t36 109.5v209z" />
    <glyph glyph-name="afii10049" unicode="&#x42f;" horiz-adv-x="611" 
d="M556 689v-689h-115v285h-109q-19 0 -36.5 -4.5t-32.5 -15.5t-27.5 -30t-21.5 -49l-53 -186h-122l57 194q13 40 28 69t47 46q-60 18 -86.5 66t-26.5 106q0 41 13 78.5t38.5 66.5t63.5 46t89 17h294zM441 586h-156q-57 0 -85.5 -28.5t-28.5 -79.5q0 -50 31 -72.5t83 -22.5
h156v203z" />
    <glyph glyph-name="afii10065" unicode="&#x430;" horiz-adv-x="510" 
d="M354 45q-53 -30 -89.5 -39.5t-67.5 -9.5q-74 0 -116 40t-42 110q0 41 18 69t45 45.5t58.5 25.5t58.5 8h137v30q0 44 -25 63t-77 19q-25 0 -61.5 -7.5t-73.5 -37.5l-49 79q50 38 100.5 49.5t93.5 11.5q102 0 150 -45t48 -137v-319h-96l-9 43zM356 212h-119q-14 0 -29 -2
t-27.5 -8.5t-21 -18.5t-8.5 -33q0 -28 20 -43.5t53 -15.5q18 0 36 4.5t35.5 11t33 14.5t27.5 15v76z" />
    <glyph glyph-name="afii10066" unicode="&#x431;" horiz-adv-x="513" 
d="M162 435q12 11 27 18.5t30.5 12.5t30.5 7t26 2q91 0 141.5 -47t50.5 -139v-108q0 -45 -17.5 -79.5t-46.5 -58t-67.5 -36t-81.5 -12.5q-97 0 -153.5 48t-56.5 138v131q0 46 3 84.5t11.5 71.5t22.5 61.5t35 55.5q16 20 38 35.5t47 28t52 23.5t52 21q13 5 24 9.5l22 9
t23 9.5t27 12l36 -87q-24 -11 -40.5 -17.5t-29 -11.5t-23 -9t-23.5 -9q-36 -15 -64 -29t-48.5 -31.5t-33 -41.5t-17.5 -58zM362 274q0 56 -29 79t-75 23q-18 0 -37 -6t-34.5 -19t-25 -33t-9.5 -48v-75q0 -28 8.5 -47.5t22.5 -31.5t33.5 -17.5t40.5 -5.5q20 0 39 5.5
t33.5 17.5t23.5 31.5t9 47.5v79z" />
    <glyph glyph-name="afii10067" unicode="&#x432;" horiz-adv-x="497" 
d="M456 149q0 -29 -10 -56t-30 -47.5t-50 -33t-70 -12.5h-251v495h249q39 0 68 -11t47.5 -29.5t28 -43t9.5 -51.5q0 -29 -16.5 -58t-45.5 -43q35 -16 53 -46t18 -64zM348 152q0 28 -20 44t-48 16h-128v-123h122q38 0 56 17t18 46zM341 352q0 27 -19.5 39.5t-45.5 12.5h-124
v-103h127q29 0 45.5 13.5t16.5 37.5z" />
    <glyph glyph-name="afii10068" unicode="&#x433;" horiz-adv-x="413" 
d="M47 0v496h365v-92h-259v-404h-106z" />
    <glyph glyph-name="afii10069" unicode="&#x434;" horiz-adv-x="576" 
d="M223 404l-6 -114q-4 -65 -11.5 -114t-28.5 -84h219v312h-173zM12 90h18.5t17.5 1q35 25 50 70.5t20 125.5l13 208h370v-403q11 0 22 -0.5t22 -0.5v-219h-97v128h-339v-128h-97v218z" />
    <glyph glyph-name="afii10070" unicode="&#x435;" horiz-adv-x="495" 
d="M152 213v-25q0 -26 9 -44.5t23.5 -30t34 -17t40.5 -5.5q23 0 55.5 8t64.5 37q16 -19 31.5 -36.5t30.5 -36.5q-42 -41 -88.5 -54.5t-93.5 -13.5q-43 0 -81.5 11t-68 33.5t-46.5 56.5t-17 80v130q0 45 15.5 81t43.5 61t65 38.5t81 13.5q45 0 83 -13t65.5 -37.5t42.5 -59.5
t15 -80v-97h-305zM350 304q0 52 -29 75.5t-69 23.5t-69.5 -24.5t-29.5 -73.5v-16h197v15z" />
    <glyph glyph-name="afii10072" unicode="&#x436;" horiz-adv-x="718" 
d="M305 0v205h-41q-17 0 -31.5 -2t-26 -9.5t-20.5 -21.5t-15 -38l-39 -134h-116l52 161q12 37 28 62.5t52 35.5q-29 10 -46 33.5t-29 59.5l-48 144h112l43 -130q15 -44 38 -56t52 -12h35v198h106v-198h35q30 0 53 12t37 56l43 130h112l-48 -144q-12 -36 -29 -59.5t-46 -33.5
q36 -10 52 -35.5t28 -62.5l52 -161h-116l-38 134q-7 24 -16 38t-20.5 21.5t-25.5 9.5t-32 2h-41v-205h-106z" />
    <glyph glyph-name="afii10073" unicode="&#x437;" horiz-adv-x="440" 
d="M222 501q81 0 128.5 -38t47.5 -102q0 -13 -3 -27.5t-11 -28.5t-21 -26.5t-33 -21.5q21 -9 35 -22t22.5 -28t12 -30t3.5 -28q0 -72 -52 -113t-145 -41q-49 0 -99.5 14t-89.5 46l57 73q26 -21 62 -32t62 -11q56 0 78.5 19.5t22.5 44.5q0 31 -22.5 46.5t-60.5 15.5h-70v83
h70q36 0 56.5 16.5t20.5 42.5q0 29 -25 42t-57 13q-26 0 -58 -8.5t-58 -30.5l-57 73q36 32 85.5 45.5t98.5 13.5z" />
    <glyph glyph-name="afii10074" unicode="&#x438;" horiz-adv-x="524" 
d="M362 326l-79 -124l-138 -202h-95v495h107v-325h4l73 109l144 216h96v-495h-107v326h-5z" />
    <glyph glyph-name="afii10075" unicode="&#x439;" horiz-adv-x="524" 
d="M255 566q-42 0 -69.5 14t-45 35t-25 45t-8.5 45h82q1 -10 5.5 -21t13 -20.5t20.5 -16t27 -6.5q17 0 29.5 6.5t21 16t12.5 20.5t4 21h81q-2 -21 -10 -45t-24.5 -45t-44 -35t-69.5 -14zM362 326l-79 -124l-138 -202h-95v495h107v-325h4l73 109l144 216h96v-495h-107v326h-5
z" />
    <glyph glyph-name="afii10076" unicode="&#x43a;" horiz-adv-x="504" 
d="M50 0v496h106v-198h63q30 0 54 12t40 56l45 130h112l-51 -144q-12 -36 -28.5 -59.5t-45.5 -33.5q35 -10 51 -35.5t28 -62.5l55 -161h-116l-41 134q-7 23 -16.5 37t-21.5 21.5t-26.5 10t-32.5 2.5h-69v-205h-106z" />
    <glyph glyph-name="afii10077" unicode="&#x43b;" horiz-adv-x="521" 
d="M210 282q0 -72 -11.5 -123t-34 -85.5t-55.5 -55.5t-76 -32l-31 85q28 11 48 24t32.5 36t18 59t5.5 93v212h358v-495h-106v404h-148v-122z" />
    <glyph glyph-name="afii10078" unicode="&#x43c;" horiz-adv-x="622" 
d="M312 192l83 156l80 147h95v-495h-106v271h-5l-115 -207h-72l-55 102l-54 102h-6v-268h-106v495h97l79 -149l79 -154h6z" />
    <glyph glyph-name="afii10079" unicode="&#x43d;" horiz-adv-x="522" 
d="M365 0v205h-209v-205h-105v495h105v-198h209v198h107v-495h-107z" />
    <glyph glyph-name="afii10080" unicode="&#x43e;" horiz-adv-x="512" 
d="M466 175q0 -44 -17.5 -78t-47 -56.5t-67.5 -34t-79 -11.5q-42 0 -80.5 11.5t-67 34t-45.5 56.5t-17 78v144q0 44 17.5 78t46.5 57t67 35t80 12q45 0 83 -12t66.5 -35.5t44.5 -57.5t16 -78v-143zM361 300q0 28 -9.5 47.5t-24.5 31.5t-34 17.5t-37 5.5t-37 -5.5t-34 -17.5
t-24.5 -31.5t-9.5 -47.5v-105q0 -56 31 -79t74 -23q18 0 37 5.5t34 17.5t24.5 31.5t9.5 47.5v105z" />
    <glyph glyph-name="afii10081" unicode="&#x43f;" horiz-adv-x="517" 
d="M363 0v402h-208v-402h-106v495h421v-495h-107z" />
    <glyph glyph-name="afii10082" unicode="&#x440;" horiz-adv-x="514" 
d="M471 172q0 -83 -45.5 -130.5t-128.5 -47.5q-26 0 -62 5t-79 25v-222h-106v693h96l10 -49q51 31 87 42.5t62 11.5q77 0 121.5 -43.5t44.5 -135.5v-149zM364 312q0 50 -21.5 68.5t-54.5 18.5q-13 0 -29.5 -4t-34.5 -11t-35.5 -16t-32.5 -19v-226q40 -17 68.5 -23t55.5 -6
q17 0 32.5 4t27 14.5t18 27.5t6.5 42v130z" />
    <glyph glyph-name="afii10083" unicode="&#x441;" horiz-adv-x="441" 
d="M422 62q-40 -41 -85 -54t-90 -13q-42 0 -79 12t-64 35t-42.5 55.5t-15.5 74.5v147q0 44 17 78t45 57t64 35t74 12q22 0 45 -2.5t45.5 -9t44 -19t41.5 -33.5l-62 -79q-34 31 -60.5 38t-46.5 7q-17 0 -35 -5.5t-32.5 -17.5t-24 -31.5t-9.5 -47.5v-106q0 -28 8.5 -47.5
t22.5 -31.5t32 -17.5t37 -5.5q21 0 51 9.5t54 32.5z" />
    <glyph glyph-name="afii10084" unicode="&#x442;" horiz-adv-x="419" 
d="M264 404v-404h-108v404h-147v92h402v-92h-147z" />
    <glyph glyph-name="afii10085" unicode="&#x443;" horiz-adv-x="472" 
d="M106 -200l75 210l-36 29l-135 457h112l53 -203l49 -181h3l63 182l67 202h112l-253 -696h-110z" />
    <glyph glyph-name="afii10086" unicode="&#x444;" horiz-adv-x="644" 
d="M269 -199v194q-51 0 -92.5 16.5t-71 44.5t-45.5 65.5t-16 80.5v88q0 43 16 80.5t45.5 66t71 45.5t92.5 18v188h106v-188q51 -1 92.5 -18t71 -45.5t45 -66t15.5 -80.5v-88q0 -43 -16 -80.5t-45.5 -65.5t-71 -44.5t-91.5 -16.5v-194h-106zM269 401q-59 -1 -89 -36t-30 -86
v-64q0 -51 31 -86.5t88 -36.5v309zM375 92q57 1 87.5 36.5t30.5 86.5v64q0 51 -29.5 86t-88.5 36v-309z" />
    <glyph glyph-name="afii10087" unicode="&#x445;" horiz-adv-x="470" 
d="M337 0l-104 171l-106 -171h-126l175 253l-166 243h127l96 -161l98 161h127l-168 -241l175 -255h-128z" />
    <glyph glyph-name="afii10088" unicode="&#x446;" horiz-adv-x="532" 
d="M465 496v-404l44 -1v-219h-97v128h-357v496h104v-403h202v403h104z" />
    <glyph glyph-name="afii10089" unicode="&#x447;" horiz-adv-x="495" 
d="M133 496v-145q0 -49 23.5 -69t61.5 -20q27 0 60.5 11t65.5 31v192h105v-496h-105v209q-48 -26 -83.5 -34t-63.5 -8q-79 0 -124.5 43t-45.5 128v158h106z" />
    <glyph glyph-name="afii10090" unicode="&#x448;" horiz-adv-x="733" 
d="M677 495v-495h-624v495h107v-401h152v401h105v-401h154v401h106z" />
    <glyph glyph-name="afii10091" unicode="&#x449;" horiz-adv-x="739" 
d="M674 495v-404h44v-220h-97v129h-570v495h106v-402h153v402h104v-402h154v402h106z" />
    <glyph glyph-name="afii10092" unicode="&#x44a;" horiz-adv-x="593" 
d="M277 90h117q38 0 58 17.5t20 48.5q0 24 -18 44t-60 20h-117v-130zM172 0v405h-164v90h270v-186h123q85 0 130 -42.5t45 -110.5q0 -32 -10.5 -60.5t-32 -49.5t-54.5 -33.5t-77 -12.5h-230z" />
    <glyph glyph-name="afii10093" unicode="&#x44b;" horiz-adv-x="657" 
d="M501 0v495h104v-495h-104zM155 90h117q38 0 58 17.5t20 48.5q0 24 -18 44t-60 20h-117v-130zM50 0v496h105v-187h124q85 0 130 -42.5t45 -110.5q0 -32 -10.5 -60.5t-32.5 -49.5t-54.5 -33.5t-76.5 -12.5h-230z" />
    <glyph glyph-name="afii10094" unicode="&#x44c;" horiz-adv-x="466" 
d="M155 90h118q38 0 58 17.5t20 48.5q0 24 -18 44t-60 20h-118v-130zM51 0v496h105v-187h123q86 0 131 -42.5t45 -110.5q0 -32 -11 -60.5t-32.5 -49.5t-54.5 -33.5t-77 -12.5h-229z" />
    <glyph glyph-name="afii10095" unicode="&#x44d;" horiz-adv-x="439" 
d="M192 -5q-45 0 -91 11t-85 53l60 78q17 -16 32 -24.5t28.5 -13t25.5 -5.5t22 -1q19 0 37.5 5.5t33.5 17.5t24 30.5t9 45.5v22h-173v82h173v8q-2 54 -27 76t-66 22q-21 0 -51.5 -8t-54.5 -31l-60 76q19 18 41.5 30t45.5 19t46 10t43 3q91 0 140 -47t49 -131v-146
q0 -44 -16 -77.5t-43.5 -57t-64 -35.5t-78.5 -12z" />
    <glyph glyph-name="afii10096" unicode="&#x44e;" horiz-adv-x="663" 
d="M620 174q0 -43 -15.5 -76t-42.5 -56t-64 -35t-79 -12q-44 0 -80.5 12t-63.5 35t-42 56.5t-15 76.5v29h-65v-204h-105v495h105v-200h65v25q0 43 16 76.5t43.5 56.5t64 35.5t77.5 12.5q43 0 80 -12t64 -35.5t42 -57t15 -75.5v-147zM515 295q0 59 -27.5 84t-67.5 25
q-19 0 -36.5 -6t-31 -19t-21.5 -33.5t-8 -50.5v-103q0 -55 27.5 -78t69.5 -23q18 0 35 5.5t30.5 17.5t21.5 31.5t8 46.5v103z" />
    <glyph glyph-name="afii10097" unicode="&#x44f;" horiz-adv-x="494" 
d="M447 495v-495h-106v196h-81q-32 0 -55.5 -13.5t-34.5 -57.5l-30 -125h-110l36 138q8 28 21 50t39 31q-43 14 -62 49t-19 73q0 30 10.5 58t31 49.5t51 34t69.5 12.5h240zM341 404h-121q-29 0 -50 -15.5t-21 -47.5q0 -31 20 -44t53 -13h119v120z" />
    <glyph glyph-name="afii10071" unicode="&#x451;" horiz-adv-x="495" 
d="M152 213v-25q0 -26 9 -44.5t23.5 -30t34 -17t40.5 -5.5q23 0 55.5 8t64.5 37q16 -19 31.5 -36.5t30.5 -36.5q-42 -41 -88.5 -54.5t-93.5 -13.5q-43 0 -81.5 11t-68 33.5t-46.5 56.5t-17 80v130q0 45 15.5 81t43.5 61t65 38.5t81 13.5q45 0 83 -13t65.5 -37.5t42.5 -59.5
t15 -80v-97h-305zM350 304q0 52 -29 75.5t-69 23.5t-69.5 -24.5t-29.5 -73.5v-16h197v15zM295 639q0 24 17 41t41 17q25 0 42 -17t17 -41t-17 -41t-42 -17q-24 0 -41 17t-17 41zM99 639q0 24 17 41t40 17q25 0 42 -17t17 -41t-17 -41t-42 -17q-23 0 -40 17t-17 41z" />
    <glyph glyph-name="afii10099" unicode="&#x452;" horiz-adv-x="516" 
d="M474 101q0 -48 -17 -83t-45.5 -57.5t-67 -33.5t-81.5 -11v95q22 0 41 5t33 16t22.5 30t8.5 47l-1 200q0 50 -22.5 70t-54.5 20q-27 0 -60.5 -13t-71.5 -37v-349h-107v567h-47v77h47v72h107v-72h201v-77h-201v-122q56 37 94 46.5t64 9.5q82 0 120 -47.5t38 -130.5v-222z
" />
    <glyph glyph-name="afii10100" unicode="&#x453;" horiz-adv-x="413" 
d="M169 570l76 185l98 -31l-111 -178zM47 0v496h365v-92h-259v-404h-106z" />
    <glyph glyph-name="afii10101" unicode="&#x454;" horiz-adv-x="441" 
d="M422 62q-40 -41 -85 -54t-90 -13q-42 0 -79 12t-64 35t-42.5 55.5t-15.5 74.5v147q0 44 17 78t45 57t64 35t74 12q22 0 45 -2.5t45.5 -9t44 -19t41.5 -33.5l-62 -79q-34 31 -60.5 38t-46.5 7q-17 0 -35 -5.5t-32.5 -17.5t-24 -31.5t-9.5 -47.5v-8h158v-85h-158v-13
q0 -28 8.5 -47.5t22.5 -31.5t32 -17.5t37 -5.5q21 0 51 9.5t54 32.5z" />
    <glyph glyph-name="afii10102" unicode="&#x455;" horiz-adv-x="460" 
d="M232 -6q-54 0 -105 13t-105 56l58 77q37 -31 75 -42.5t80 -11.5q35 0 62.5 15t27.5 46q0 26 -18 38.5t-53 18.5q-36 6 -73 13.5t-67 22.5t-49 40.5t-19 67.5q0 36 15 64.5t40.5 48t58.5 30t70 10.5q57 0 102.5 -11.5t89.5 -43.5l-52 -79q-36 23 -70 31.5t-69 8.5
q-38 0 -59.5 -17t-21.5 -40t21 -33.5t52.5 -17t68.5 -13.5t68.5 -22t52.5 -42.5t21 -74.5q0 -36 -15.5 -64.5t-43 -48t-64.5 -30t-79 -10.5z" />
    <glyph glyph-name="afii10103" unicode="&#x456;" horiz-adv-x="254" 
d="M74 0v495h106v-495h-106zM66 637q0 26 17.5 43.5t42.5 17.5q26 0 43.5 -17.5t17.5 -43.5t-17.5 -43.5t-43.5 -17.5q-25 0 -42.5 17.5t-17.5 43.5z" />
    <glyph glyph-name="afii10104" unicode="&#x457;" horiz-adv-x="254" 
d="M170 632q0 24 17 41t41 17q25 0 42 -17t17 -41t-17 -41t-42 -17q-24 0 -41 17t-17 41zM-26 632q0 24 17 41t40 17q25 0 42 -17t17 -41t-17 -41t-42 -17q-23 0 -40 17t-17 41zM74 0v495h106v-495h-106z" />
    <glyph glyph-name="afii10105" unicode="&#x458;" horiz-adv-x="257" 
d="M189 -52q0 -78 -41 -114.5t-110 -36.5h-53v94h36q37 0 49.5 17t12.5 56v531h106v-547zM76 638q0 25 17 42.5t43 17.5t43.5 -17.5t17.5 -42.5q0 -26 -17.5 -43.5t-43.5 -17.5t-43 17.5t-17 43.5z" />
    <glyph glyph-name="afii10106" unicode="&#x459;" horiz-adv-x="750" 
d="M431 496v-187h123q86 0 131 -42.5t45 -110.5q0 -32 -11 -60.5t-32.5 -49.5t-54.5 -33.5t-77 -12.5h-229v404h-109v-124q0 -67 -10.5 -116.5t-32.5 -85t-55.5 -57.5t-79.5 -33l-30 82q29 10 49.5 25t33 39t18.5 58t6 84v220h315zM430 90h118q38 0 58 17.5t20 48.5
q0 24 -18 44t-60 20h-118v-130z" />
    <glyph glyph-name="afii10107" unicode="&#x45a;" horiz-adv-x="753" 
d="M436 496v-187h123q86 0 131 -42.5t45 -110.5q0 -32 -11 -60.5t-32.5 -49.5t-54.5 -33.5t-77 -12.5h-229v218h-168v-218h-106v496h106v-189h168v189h105zM436 90h117q38 0 58 17.5t20 48.5q0 24 -18 44t-60 20h-117v-130z" />
    <glyph glyph-name="afii10108" unicode="&#x45b;" horiz-adv-x="516" 
d="M367 0v309q0 50 -22.5 70t-54.5 20q-27 0 -60.5 -13t-71.5 -37v-349h-107v567h-47v77h47v72h107v-72h201v-77h-201v-122q56 37 94 46.5t64 9.5q82 0 120 -47.5t38 -130.5v-323h-107z" />
    <glyph glyph-name="afii10109" unicode="&#x45c;" horiz-adv-x="504" 
d="M181 570l76 185l98 -31l-111 -178zM50 0v496h106v-198h63q30 0 54 12t40 56l45 130h112l-51 -144q-12 -36 -28.5 -59.5t-45.5 -33.5q35 -10 51 -35.5t28 -62.5l55 -161h-116l-41 134q-7 23 -16.5 37t-21.5 21.5t-26.5 10t-32.5 2.5h-69v-205h-106z" />
    <glyph glyph-name="afii10110" unicode="&#x45e;" horiz-adv-x="472" 
d="M106 -200l75 210l-36 29l-135 457h112l53 -203l49 -181h3l63 182l67 202h112l-253 -696h-110zM240 566q-42 0 -69.5 14t-45 35t-25 45t-8.5 45h82q1 -10 5.5 -21t13 -20.5t20.5 -16t27 -6.5q17 0 29.5 6.5t21 16t12.5 20.5t4 21h81q-2 -21 -10 -45t-24.5 -45t-44 -35
t-69.5 -14z" />
    <glyph glyph-name="afii10193" unicode="&#x45f;" horiz-adv-x="517" 
d="M469 495v-495h-158v-147h-104v147h-158v495h105v-405h209v405h106z" />
    <glyph glyph-name="afii10050" unicode="&#x490;" horiz-adv-x="538" 
d="M527 586h-350v-586h-114v689h358v124h106v-227z" />
    <glyph glyph-name="afii10098" unicode="&#x491;" horiz-adv-x="421" 
d="M153 404v-404h-106v496h271v108h99v-200h-264z" />
    <glyph glyph-name="schwacyrillic" unicode="&#x4d9;" horiz-adv-x="500" 
d="M350 282v25q0 52 -28 74.5t-73 22.5q-23 0 -57.5 -8.5t-66.5 -36.5l-58 74q45 42 92 55t96 13q43 0 79.5 -11.5t63.5 -34t42.5 -56.5t15.5 -80v-130q0 -45 -15.5 -81t-43.5 -61t-65.5 -38t-81.5 -13q-45 0 -83 13t-65 37t-42.5 59t-15.5 80v97h306zM151 191
q0 -52 29 -75.5t70 -23.5q42 0 70.5 26t28.5 79v9h-198v-15z" />
    <glyph glyph-name="Wgrave" unicode="&#x1e80;" horiz-adv-x="885" 
d="M439 490l-51 -206l-72 -284h-127l-179 689h123l69 -295l50 -220h6l54 222l74 293h112l77 -305l52 -210h5l48 212l71 303h123l-180 -689h-126l-73 286l-50 204h-6zM446 756l-185 99l70 76l158 -124z" />
    <glyph glyph-name="wgrave" unicode="&#x1e81;" horiz-adv-x="719" 
d="M356 305l-50 -160l-47 -145h-104l-140 496h111l43 -170l41 -173h4l57 173l40 122h97l45 -136l50 -161h5l41 176l42 169h108l-135 -496h-105l-49 149l-50 156h-4zM344 546l-115 177l98 32l79 -183z" />
    <glyph glyph-name="Wacute" unicode="&#x1e82;" horiz-adv-x="885" 
d="M439 490l-51 -206l-72 -284h-127l-179 689h123l69 -295l50 -220h6l54 222l74 293h112l77 -305l52 -210h5l48 212l71 303h123l-180 -689h-126l-73 286l-50 204h-6zM397 787l168 130l60 -82l-190 -101z" />
    <glyph glyph-name="wacute" unicode="&#x1e83;" horiz-adv-x="719" 
d="M356 305l-50 -160l-47 -145h-104l-140 496h111l43 -170l41 -173h4l57 173l40 122h97l45 -136l50 -161h5l41 176l42 169h108l-135 -496h-105l-49 149l-50 156h-4zM325 570l76 185l98 -31l-111 -178z" />
    <glyph glyph-name="Wdieresis" unicode="&#x1e84;" horiz-adv-x="885" 
d="M439 490l-51 -206l-72 -284h-127l-179 689h123l69 -295l50 -220h6l54 222l74 293h112l77 -305l52 -210h5l48 212l71 303h123l-180 -689h-126l-73 286l-50 204h-6zM481 811q0 24 17 41t41 17q25 0 41.5 -17t16.5 -41t-16.5 -41t-41.5 -17q-24 0 -41 17t-17 41zM285 811
q0 24 17 41t40 17q25 0 42 -17t17 -41t-17 -41t-42 -17q-23 0 -40 17t-17 41z" />
    <glyph glyph-name="wdieresis" unicode="&#x1e85;" horiz-adv-x="719" 
d="M356 305l-50 -160l-47 -145h-104l-140 496h111l43 -170l41 -173h4l57 173l40 122h97l45 -136l50 -161h5l41 176l42 169h108l-135 -496h-105l-49 149l-50 156h-4zM398 634q0 24 17 41t41 17q25 0 42 -17t17 -41t-17 -41t-42 -17q-24 0 -41 17t-17 41zM202 634q0 24 17 41
t40 17q25 0 42 -17t17 -41t-17 -41t-42 -17q-23 0 -40 17t-17 41z" />
    <glyph glyph-name="Ygrave" unicode="&#x1ef2;" horiz-adv-x="556" 
d="M282 382l66 150l74 157h122l-208 -422v-267h-115v267l-210 422h124l75 -161l65 -146h7zM307 736l-185 99l70 76l158 -124z" />
    <glyph glyph-name="ygrave" unicode="&#x1ef3;" horiz-adv-x="472" 
d="M106 -200l75 210l-36 29l-135 457h112l53 -203l49 -181h3l63 182l67 202h112l-253 -696h-110zM214 546l-115 177l98 32l79 -183z" />
    <glyph glyph-name="endash" unicode="&#x2013;" horiz-adv-x="508" 
d="M20 226v93h468v-93h-468z" />
    <glyph glyph-name="emdash" unicode="&#x2014;" horiz-adv-x="1017" 
d="M20 226v93h977v-93h-977z" />
    <glyph glyph-name="afii00208" unicode="&#x2015;" horiz-adv-x="1000" 
d="M23 319h954v-96h-954v96z" />
    <glyph glyph-name="quoteleft" unicode="&#x2018;" horiz-adv-x="298" 
d="M228 690q-24 -18 -39.5 -40.5t-17.5 -49.5q22 -3 36.5 -21.5t14.5 -44.5q0 -27 -20 -47.5t-50 -20.5q-20 0 -34.5 7.5t-24.5 20.5t-14.5 29.5t-4.5 33.5q0 29 9 56.5t24.5 51.5t37 43t46.5 31z" />
    <glyph glyph-name="quoteright" unicode="&#x2019;" horiz-adv-x="298" 
d="M74 516q24 18 39.5 40.5t17.5 49.5q-22 3 -36.5 21.5t-14.5 44.5q0 27 20 47.5t50 20.5q20 0 34.5 -7.5t24.5 -20.5t14.5 -29t4.5 -34q0 -29 -9 -56.5t-25 -51.5t-37 -43t-46 -31z" />
    <glyph glyph-name="quotesinglbase" unicode="&#x201a;" horiz-adv-x="271" 
d="M61 -95q24 18 39.5 40.5t17.5 49.5q-25 3 -38 20t-13 46q0 27 20 47t50 20q20 0 34.5 -7.5t24.5 -20t14.5 -29t4.5 -33.5q0 -29 -9 -56.5t-25 -51.5t-37 -43.5t-46 -31.5z" />
    <glyph glyph-name="quotedblleft" unicode="&#x201c;" horiz-adv-x="444" 
d="M214 690q-24 -18 -39 -40.5t-18 -49.5q23 -3 37 -21.5t14 -44.5q0 -27 -20 -47.5t-50 -20.5q-20 0 -34.5 7.5t-24.5 20.5t-14.5 29.5t-4.5 33.5q0 29 9 56.5t25 51.5t37.5 43t45.5 31zM386 690q-24 -18 -39 -40.5t-18 -49.5q23 -3 37 -21.5t14 -44.5q0 -27 -20 -47.5
t-50 -20.5q-20 0 -34.5 7.5t-24.5 20.5t-14.5 29.5t-4.5 33.5q0 29 9 56.5t25 51.5t37.5 43t45.5 31z" />
    <glyph glyph-name="quotedblright" unicode="&#x201d;" horiz-adv-x="444" 
d="M233 516q24 18 39.5 40.5t17.5 49.5q-22 3 -36.5 21.5t-14.5 44.5q0 27 20 47.5t50 20.5q20 0 34.5 -7.5t24.5 -20.5t14.5 -29t4.5 -34q0 -29 -9 -56.5t-25 -51.5t-37 -43t-46 -31zM61 516q24 18 39.5 40.5t17.5 49.5q-22 3 -36.5 21.5t-14.5 44.5q0 27 20 47.5t50 20.5
q20 0 34.5 -7.5t24.5 -20.5t14.5 -29t4.5 -34q0 -29 -9 -56.5t-25 -51.5t-37 -43t-46 -31z" />
    <glyph glyph-name="quotedblbase" unicode="&#x201e;" horiz-adv-x="473" 
d="M61 -95q24 18 39.5 40.5t17.5 49.5q-25 3 -38 20t-13 46q0 27 20 47t50 20q20 0 34.5 -7.5t24.5 -20t14.5 -29t4.5 -33.5q0 -29 -9 -56.5t-25 -51.5t-37 -43.5t-46 -31.5zM263 -95q24 18 39.5 40.5t17.5 49.5q-25 3 -38 20t-13 46q0 27 20 47t50 20q20 0 34.5 -7.5
t24.5 -20t14.5 -29t4.5 -33.5q0 -29 -9 -56.5t-25 -51.5t-37 -43.5t-46 -31.5z" />
    <glyph glyph-name="dagger" unicode="&#x2020;" horiz-adv-x="481" 
d="M290 379v-559h-100v559h-168v83h168v234h100v-234h169v-83h-169z" />
    <glyph glyph-name="daggerdbl" unicode="&#x2021;" horiz-adv-x="481" 
d="M190 379h-168v83h168v234h100v-234h169v-83h-169v-175h169v-82h-169v-302h-100v302h-168v82h168v175z" />
    <glyph glyph-name="bullet" unicode="&#x2022;" horiz-adv-x="431" 
d="M81 280q0 29 11 54.5t30 44.5t44.5 30t54.5 11t55 -11t45 -30t30 -44.5t11 -54.5t-11 -54.5t-30 -44.5t-45 -30t-55 -11t-54.5 11t-44.5 30t-30 44.5t-11 54.5z" />
    <glyph glyph-name="trianglebullet" unicode="&#x2023;" horiz-adv-x="532" 
d="M497 280l-416 -234v457z" />
    <glyph glyph-name="ellipsis" unicode="&#x2026;" horiz-adv-x="839" 
d="M135 -6q-32 0 -50 20.5t-18 50.5q0 26 18.5 46.5t48.5 20.5q32 0 51 -20.5t19 -46.5q0 -29 -18.5 -50t-50.5 -21zM419 -6q-31 0 -49.5 20.5t-18.5 50.5q0 26 18.5 46.5t48.5 20.5q32 0 51.5 -20.5t19.5 -46.5q0 -29 -18.5 -50t-51.5 -21zM700 -6q-31 0 -49.5 20.5
t-18.5 50.5q0 26 18.5 46.5t48.5 20.5q32 0 51.5 -20.5t19.5 -46.5q0 -29 -18.5 -50t-51.5 -21z" />
    <glyph glyph-name="perthousand" unicode="&#x2030;" horiz-adv-x="1163" 
d="M775 112q0 -28 -12 -49.5t-32 -36.5t-46 -22.5t-53 -7.5q-28 0 -54 7.5t-46 22.5t-32 36.5t-12 49.5v189q0 28 12.5 49.5t32.5 36.5t46 23t53 8t52.5 -8t46 -23t32.5 -36.5t12 -49.5v-189zM693 289q0 15 -5.5 25t-14.5 16.5t-20 9.5t-21 3t-20.5 -3t-19.5 -9.5
t-14.5 -16.5t-5.5 -25v-167q0 -14 5.5 -24t14.5 -16t19.5 -9t20.5 -3t21 3t20 9t14.5 16t5.5 24v167zM337 387q0 -28 -12 -49.5t-32 -36.5t-46 -22.5t-53 -7.5q-28 0 -54 7.5t-46 22.5t-32 36.5t-12 49.5v189q0 28 12 49.5t32.5 36.5t46.5 23t53 8t52.5 -8t46 -23
t32.5 -36.5t12 -49.5v-189zM255 564q0 15 -5.5 25t-14.5 16.5t-20 9.5t-21 3t-20.5 -3t-19.5 -9.5t-14.5 -16.5t-5.5 -25v-167q0 -14 5.5 -24t14.5 -16t19.5 -9t20.5 -3t21 3t20 9t14.5 16t5.5 24v167zM241 -17h-78l425 730h79zM1112 112q0 -28 -12 -49.5t-32.5 -36.5
t-46.5 -22.5t-53 -7.5q-28 0 -54 7.5t-45.5 22.5t-31.5 36.5t-12 49.5v189q0 28 12 49.5t32.5 36.5t46 23t52.5 8t53 -8t46.5 -23t32.5 -36.5t12 -49.5v-189zM1030 289q0 15 -6 25t-15 16.5t-20 9.5t-21 3q-20 0 -39.5 -12.5t-19.5 -41.5v-167q0 -14 5.5 -24t14 -16t19 -9
t20.5 -3t21 3t20 9t15 16t6 24v167z" />
    <glyph glyph-name="guilsinglleft" unicode="&#x2039;" horiz-adv-x="334" 
d="M179 34l-133 195l133 196h99l-130 -196l130 -195h-99z" />
    <glyph glyph-name="guilsinglright" unicode="&#x203a;" horiz-adv-x="334" 
d="M45 34l130 195l-130 196h99l133 -196l-133 -195h-99z" />
    <glyph glyph-name="fraction" unicode="&#x2044;" horiz-adv-x="160" 
d="M-94 -17h-78l425 730h79z" />
    <glyph glyph-name="fraction" unicode="&#x2215;" horiz-adv-x="160" 
d="M-94 -17h-78l425 730h79z" />
    <glyph glyph-name="zerosuperior" unicode="&#x2070;" horiz-adv-x="337" 
d="M312 477q0 -28 -12 -49.5t-32 -36.5t-46 -22.5t-53 -7.5q-28 0 -54 7.5t-46 22.5t-32 36.5t-12 49.5v189q0 28 12 49.5t32.5 36.5t46.5 23t53 8t52.5 -8t46 -23t32.5 -36.5t12 -49.5v-189zM230 654q0 15 -5.5 25t-14.5 16.5t-20 9.5t-21 3t-20.5 -3t-19.5 -9.5
t-14.5 -16.5t-5.5 -25v-167q0 -14 5.5 -24t14.5 -16t19.5 -9t20.5 -3t21 3t20 9t14.5 16t5.5 24v167z" />
    <glyph glyph-name="foursuperior" unicode="&#x2074;" horiz-adv-x="337" 
d="M283 424v-59h-79v59h-189v61l147 293h87l-141 -284h96v113h79v-113h41v-70h-41z" />
    <glyph glyph-name="fivesuperior" unicode="&#x2075;" horiz-adv-x="337" 
d="M311 476q0 -27 -12 -48.5t-32.5 -36t-47 -22.5t-55.5 -8q-42 0 -76 13.5t-60 34.5l46 60q44 -34 88 -34q9 0 20.5 2.5t21.5 8t17 15t7 24.5v48q0 21 -12 31t-29 10q-9 0 -20.5 -3t-22.5 -8t-21 -10.5t-17 -9.5l-69 28l-1 208h261v-72h-178v-80q20 11 39.5 17.5t34.5 6.5
q57 0 87.5 -31t30.5 -81v-63v0z" />
    <glyph glyph-name="sixsuperior" unicode="&#x2076;" horiz-adv-x="337" 
d="M311 477q0 -28 -12 -49.5t-32 -36.5t-45.5 -22.5t-52.5 -7.5t-52.5 7.5t-45.5 22.5t-32 36.5t-12 49.5v190q0 28 12 49.5t32 36.5t46 22.5t55 7.5q43 0 75.5 -13.5t58.5 -34.5l-45 -60q-23 18 -43.5 25.5t-43.5 7.5q-9 0 -20 -2.5t-20.5 -8.5t-16 -16t-6.5 -24v-47
q26 14 47 20.5t38 6.5q56 0 85.5 -31.5t29.5 -79.5v-49zM228 520q0 23 -12.5 33t-29.5 10t-36 -7.5t-39 -18.5v-50q0 -14 5.5 -24t14 -16t18.5 -9t20 -3q20 0 39.5 12.5t19.5 39.5v33z" />
    <glyph glyph-name="sevensuperior" unicode="&#x2077;" horiz-adv-x="337" 
d="M310 716q-40 -88 -80 -175.5t-80 -176.5h-90l154 343h-107v-59h-79v130h282v-62v0z" />
    <glyph glyph-name="eightsuperior" unicode="&#x2078;" horiz-adv-x="337" 
d="M170 782q26 0 51 -7.5t45 -23t32 -38.5t12 -53q0 -26 -14.5 -49.5t-38.5 -34.5q28 -11 42.5 -36t14.5 -52q0 -32 -12.5 -56t-33 -39.5t-46 -23.5t-51.5 -8t-52 7.5t-46 23.5t-32.5 39t-12.5 55q0 29 15 52t42 37q-25 11 -38.5 34t-13.5 51q0 30 12 53t31 38.5t43.5 23
t50.5 7.5zM227 659q0 24 -18 36t-38 12q-22 0 -39.5 -12t-17.5 -36t17 -37t40 -13q22 0 39 13.5t17 36.5zM113 486q0 -25 17 -38t41 -13t41 13t17 38q0 23 -17 36.5t-41 13.5t-41 -13t-17 -37z" />
    <glyph glyph-name="ninesuperior" unicode="&#x2079;" horiz-adv-x="336" 
d="M307 476q0 -28 -12 -49.5t-32 -36t-46 -22t-55 -7.5q-42 0 -75.5 13.5t-58.5 34.5l46 60q42 -33 86 -33q9 0 20 2.5t20.5 8.5t16 16t6.5 24v50q-24 -14 -45.5 -20.5t-38.5 -6.5q-54 0 -84.5 31.5t-30.5 81.5v43q0 28 12.5 50t32.5 37t45.5 22.5t51.5 7.5q27 0 52 -7.5
t45 -22t32 -36t12 -49.5v-192zM223 657q0 14 -5.5 24t-13.5 16t-18 8.5t-20 2.5t-20.5 -3t-19.5 -9t-14.5 -15.5t-5.5 -23.5v-30q0 -22 12.5 -32.5t29.5 -10.5q18 0 36.5 8t38.5 18v47z" />
    <glyph glyph-name="plussuperior" unicode="&#x207a;" horiz-adv-x="336" 
d="M202 513v-110h-68v110h-122v62h122v108h68v-108h122v-62h-122z" />
    <glyph glyph-name="hyphensuperior" unicode="&#x207b;" horiz-adv-x="265" 
d="M27 491v70h211v-70h-211z" />
    <glyph glyph-name="equalsuperior" unicode="&#x207c;" horiz-adv-x="336" 
d="M12 572v62h312v-62h-312zM12 454v63h312v-63h-312z" />
    <glyph glyph-name="parenleftsuperior" unicode="&#x207d;" horiz-adv-x="215" 
d="M160 288q-26 26 -49.5 56.5t-41.5 63.5t-28.5 68.5t-10.5 72.5q0 38 10.5 74t27.5 68.5t40 61.5t49 55l51 -29q-45 -51 -69 -112t-24 -115q0 -59 24.5 -119t66.5 -111z" />
    <glyph glyph-name="parenrightsuperior" unicode="&#x207e;" horiz-adv-x="212" 
d="M196 549q0 -37 -10.5 -73t-28.5 -69t-41.5 -63t-49.5 -55l-47 33q42 51 66.5 111t24.5 119q0 54 -24 115t-68 112l51 29q25 -26 48 -55t40.5 -61.5t28 -68.5t10.5 -74z" />
    <glyph glyph-name="nsuperior" unicode="&#x207f;" horiz-adv-x="350" 
d="M238 275v204q0 29 -13 40t-32 10q-35 0 -84 -29v-225h-85v328h77l6 -30q35 21 61.5 28t43.5 7q56 0 83.5 -32t27.5 -88v-213h-85z" />
    <glyph glyph-name="zeroinferior" unicode="&#x2080;" horiz-adv-x="337" 
d="M312 22q0 -28 -12 -49.5t-32 -36.5t-46 -22.5t-53 -7.5q-28 0 -54 7.5t-46 22.5t-32 36.5t-12 49.5v189q0 28 12 49.5t32.5 36.5t46.5 23t53 8t52.5 -8t46 -23t32.5 -36.5t12 -49.5v-189zM230 199q0 15 -5.5 25t-14.5 16.5t-20 9.5t-21 3t-20.5 -3t-19.5 -9.5
t-14.5 -16.5t-5.5 -25v-167q0 -14 5.5 -24t14.5 -16t19.5 -9t20.5 -3t21 3t20 9t14.5 16t5.5 24v167z" />
    <glyph glyph-name="oneinferior" unicode="&#x2081;" horiz-adv-x="309" 
d="M135 -90v313l-46 -35l-46 57l100 79h74v-414h-82z" />
    <glyph glyph-name="twoinferior" unicode="&#x2082;" horiz-adv-x="337" 
d="M310 213q0 -22 -10 -42t-25.5 -37t-34 -32t-36.5 -27q-12 -8 -28 -18t-30 -22t-24 -25.5t-10 -28.5h198v-71h-284v60q0 29 10 51.5t26.5 41t37.5 34t42 29.5q12 8 27 17.5t27.5 20.5t21 23t8.5 25q0 22 -21 32.5t-45 10.5q-23 0 -45.5 -8.5t-42.5 -23.5l-43 59
q26 20 61.5 33.5t73.5 13.5q28 0 54.5 -6t46.5 -19.5t32.5 -35.5t12.5 -55z" />
    <glyph glyph-name="threeinferior" unicode="&#x2083;" horiz-adv-x="336" 
d="M158 327q27 0 52 -6.5t44.5 -20t31 -36t11.5 -53.5q0 -29 -15 -52.5t-46 -33.5q35 -13 49.5 -38t14.5 -51q0 -33 -12.5 -58t-33 -41t-47.5 -24t-56 -8q-41 0 -75.5 11.5t-60.5 31.5l42 62q20 -15 44.5 -23t44.5 -8q31 0 51 13.5t20 39.5q0 25 -17.5 39.5t-41.5 14.5h-58
v69h58q20 0 38.5 13.5t18.5 40.5q0 24 -20.5 34.5t-44.5 10.5q-20 0 -44.5 -7t-44.5 -23l-39 60q25 20 60 31.5t76 11.5z" />
    <glyph glyph-name="fourinferior" unicode="&#x2084;" horiz-adv-x="337" 
d="M283 -31v-59h-79v59h-189v61l147 293h87l-141 -284h96v113h79v-113h41v-70h-41z" />
    <glyph glyph-name="fiveinferior" unicode="&#x2085;" horiz-adv-x="337" 
d="M311 21q0 -27 -12 -48.5t-32.5 -36t-47 -22.5t-55.5 -8q-42 0 -76 13.5t-60 34.5l46 60q44 -34 88 -34q9 0 20.5 2.5t21.5 8t17 15t7 24.5v48q0 21 -12 31t-29 10q-9 0 -20.5 -3t-22.5 -8t-21 -10.5t-17 -9.5l-69 28l-1 208h261v-72h-178v-80q20 11 39.5 17.5t34.5 6.5
q57 0 87.5 -31t30.5 -81v-63v0z" />
    <glyph glyph-name="sixinferior" unicode="&#x2086;" horiz-adv-x="337" 
d="M311 22q0 -28 -12 -49.5t-32 -36.5t-45.5 -22.5t-52.5 -7.5t-52.5 7.5t-45.5 22.5t-32 36.5t-12 49.5v190q0 28 12 49.5t32 36.5t46 22.5t55 7.5q43 0 76 -13.5t60 -34.5l-47 -60q-23 18 -43.5 25.5t-43.5 7.5q-9 0 -20 -2.5t-20.5 -8.5t-16 -16t-6.5 -24v-47
q26 14 47 20.5t38 6.5q56 0 85.5 -31.5t29.5 -79.5v-49zM228 65q0 23 -12.5 33t-29.5 10t-36 -7.5t-39 -18.5v-50q0 -14 5.5 -24t14 -16t18.5 -9t20 -3q20 0 39.5 12.5t19.5 39.5v33z" />
    <glyph glyph-name="seveninferior" unicode="&#x2087;" horiz-adv-x="337" 
d="M150 -90h-90q39 86 77.5 171t76.5 171h-107v-59h-79v130h282v-62z" />
    <glyph glyph-name="eightinferior" unicode="&#x2088;" horiz-adv-x="337" 
d="M170 327q26 0 51 -7.5t45 -23t32 -38.5t12 -53q0 -26 -14.5 -49.5t-38.5 -34.5q28 -11 42.5 -36t14.5 -52q0 -32 -12.5 -56t-33 -39.5t-46 -23.5t-51.5 -8t-52 7.5t-46 23.5t-32.5 39t-12.5 55q0 29 15 52t42 37q-25 11 -38.5 34t-13.5 51q0 30 12 53t31 38.5t43.5 23
t50.5 7.5zM227 204q0 24 -18 36t-38 12q-22 0 -39.5 -12t-17.5 -36t17 -37t40 -13q22 0 39 13.5t17 36.5zM113 31q0 -25 17 -38t41 -13t41 13t17 38q0 23 -17 36.5t-41 13.5t-41 -13t-17 -37z" />
    <glyph glyph-name="nineinferior" unicode="&#x2089;" horiz-adv-x="336" 
d="M307 21q0 -28 -12 -49.5t-32 -36t-46 -22t-55 -7.5q-42 0 -75.5 13.5t-58.5 34.5l46 60q42 -33 86 -33q9 0 20 2.5t20.5 8.5t16 16t6.5 24v50q-24 -14 -45.5 -20.5t-38.5 -6.5q-54 0 -84.5 31.5t-30.5 81.5v43q0 28 12.5 50t32.5 37t45.5 22.5t51.5 7.5q27 0 52 -7.5
t45 -22t32 -36t12 -49.5v-192zM223 202q0 14 -5.5 24t-13.5 16t-18 8.5t-20 2.5t-20.5 -3t-19.5 -9t-14.5 -15.5t-5.5 -23.5v-30q0 -22 12.5 -32.5t29.5 -10.5q18 0 36.5 8t38.5 18v47z" />
    <glyph glyph-name="plusinferior" unicode="&#x208a;" horiz-adv-x="336" 
d="M202 58v-111h-68v111h-122v61h122v109h68v-109h122v-61h-122z" />
    <glyph glyph-name="hypheninferior" unicode="&#x208b;" horiz-adv-x="265" 
d="M27 35v70h211v-70h-211z" />
    <glyph glyph-name="equalinferior" unicode="&#x208c;" horiz-adv-x="336" 
d="M12 116v62h312v-62h-312zM12 -2v63h312v-63h-312z" />
    <glyph glyph-name="parenleftinferior" unicode="&#x208d;" horiz-adv-x="215" 
d="M160 -141q-26 26 -49.5 56.5t-41.5 63.5t-28.5 68.5t-10.5 72.5q0 38 10.5 74t27.5 68.5t40 61.5t49 55l51 -29q-45 -51 -69 -112t-24 -115q0 -59 24.5 -119t66.5 -111z" />
    <glyph glyph-name="parenrightinferior" unicode="&#x208e;" horiz-adv-x="212" 
d="M196 120q0 -37 -10.5 -73t-28.5 -69t-41.5 -63t-49.5 -55l-47 33q42 51 66.5 111t24.5 119q0 54 -24 115t-68 112l51 29q25 -26 48 -55t40.5 -61.5t28 -68.5t10.5 -74z" />
    <glyph glyph-name="dong" unicode="&#x20ab;" horiz-adv-x="500" 
d="M239 630h85v64h98v-64h40v-71h-40v-428h-88l-8 36q-38 -23 -68.5 -31t-50.5 -8q-63 0 -99.5 34.5t-36.5 108.5v104q0 66 39 104.5t103 38.5q19 0 49 -3.5t62 -13.5v58h-85v71zM63 82h383v-82h-383v82zM169 277q0 -34 14 -47t37 -13q9 0 22.5 2.5t28 7.5t28.5 11.5
t25 14.5v154q-26 10 -52.5 15t-45.5 5q-24 0 -40.5 -14t-16.5 -49v-87z" />
    <glyph glyph-name="Euro" unicode="&#x20ac;" horiz-adv-x="517" 
d="M429 325v-69h-236v-35q0 -33 12 -56.5t32 -38t45 -21.5t51 -7q32 0 66 8t65 28q14 -23 26 -45t26 -45q-35 -23 -82.5 -37t-100.5 -14q-54 0 -100.5 15t-81 44t-54 71t-19.5 96v37h-45v69h396zM33 368v69h45v31q0 54 20.5 96t55.5 71t81 44.5t97 15.5t96.5 -11.5
t83.5 -36.5l-54 -91q-28 17 -60.5 25.5t-63.5 8.5q-26 0 -51.5 -7t-45.5 -21.5t-32 -38t-12 -56.5v-30h236v-69h-396z" />
    <glyph glyph-name="centigrade" unicode="&#x2103;" horiz-adv-x="860" 
d="M773 542q-29 25 -68 37t-76 12q-26 0 -51.5 -8t-45.5 -25t-32.5 -44t-12.5 -65v-209q0 -38 12.5 -65t33 -44t45.5 -25t50 -8q37 0 75 10.5t72 37.5l54 -88q-35 -29 -88 -47t-113 -18q-50 0 -96 14.5t-81.5 43t-57 70.5t-21.5 96v255q0 54 21.5 95.5t57 70t81.5 43.5
t95 15q57 0 109.5 -16t92.5 -49zM318 561q0 -29 -11.5 -54.5t-31 -44.5t-45.5 -30t-56 -11t-56 11t-45.5 30t-31 44.5t-11.5 54.5t11.5 55t31 45t45.5 30t56 11t56 -11t45.5 -30t31 -45t11.5 -55zM247 561q0 30 -21 51t-52 21q-30 0 -51.5 -21t-21.5 -51q0 -29 21.5 -50.5
t51.5 -21.5q31 0 52 21.5t21 50.5z" />
    <glyph glyph-name="afii61248" unicode="&#x2105;" horiz-adv-x="758" 
d="M729 125q0 -32 -12.5 -56t-33.5 -40.5t-48.5 -25t-57.5 -8.5t-57 8.5t-47.5 25t-32.5 40.5t-12 56v99q0 32 12.5 56.5t33 41t47.5 25t57 8.5q32 0 59.5 -8.5t48 -25.5t32 -41.5t11.5 -56.5v-98zM316 387q-31 -31 -63 -41t-64 -10q-31 0 -57 8.5t-45.5 25t-30.5 40
t-11 53.5v102q0 31 12 55.5t32 41.5t46 25.5t53 8.5q32 0 65 -9t63 -41l-50 -61q-24 23 -41.5 28t-31.5 5q-11 0 -22.5 -3.5t-21 -11.5t-15.5 -20.5t-6 -30.5v-73q0 -35 20 -49.5t44 -14.5q14 0 34.5 6.5t37.5 24.5zM645 212q0 18 -6 30t-15.5 20t-21 11.5t-23.5 3.5
q-25 0 -46.5 -15t-21.5 -50v-74q0 -35 19.5 -49.5t48.5 -14.5q12 0 23.5 3.5t21 11t15.5 19.5t6 30v74zM212 -17h-78l425 730h79z" />
    <glyph glyph-name="fahrenheit" unicode="&#x2109;" horiz-adv-x="840" 
d="M475 395h302v-103h-302v-292h-114v689h467v-103h-353v-191zM318 561q0 -29 -11.5 -54.5t-31 -44.5t-45.5 -30t-56 -11t-56 11t-45.5 30t-31 44.5t-11.5 54.5t11.5 55t31 45t45.5 30t56 11t56 -11t45.5 -30t31 -45t11.5 -55zM247 561q0 30 -21 51t-52 21q-30 0 -51.5 -21
t-21.5 -51q0 -29 21.5 -50.5t51.5 -21.5q31 0 52 21.5t21 50.5z" />
    <glyph glyph-name="afii61289" unicode="&#x2113;" horiz-adv-x="504" 
d="M461 145q-29 -70 -75 -112.5t-109 -42.5q-36 0 -66 13t-51.5 35.5t-33.5 53.5t-12 66v36q-17 -11 -31 -19.5t-28 -16.5l-29 58q20 11 43 25.5t44 31.5v216q0 60 12 102t33.5 68t50 38t61.5 12q23 0 45.5 -7.5t40.5 -23.5t29.5 -40.5t11.5 -57.5q0 -82 -50 -163t-150 -172
v-48q0 -37 8 -62t20.5 -40.5t28 -22t31.5 -6.5q30 0 59.5 28t50.5 79zM197 338q60 68 91.5 125t31.5 118q0 10 -2.5 21t-9 20t-17 15t-25.5 6q-12 0 -24.5 -8t-22.5 -24.5t-16 -42.5t-6 -62v-168z" />
    <glyph glyph-name="afii61352" unicode="&#x2116;" horiz-adv-x="952" 
d="M463 0l-157 263l-37 64l-90 159h-4v-486h-111v688h105l137 -229q4 -8 15.5 -27t26.5 -44t31.5 -53.5t31 -53.5t26 -44.5t15.5 -26.5h3v478h110v-688h-102zM922 491q0 -30 -12 -54t-32 -40.5t-47.5 -25.5t-58.5 -9q-32 0 -59 9t-46.5 25.5t-31 40.5t-11.5 54v77
q0 30 12 54t32 41t47.5 26t57.5 9q66 0 107.5 -35.5t41.5 -94.5v-77zM838 560q0 32 -21 47.5t-44 15.5t-44 -15.5t-21 -47.5v-59q0 -33 19.5 -48t45.5 -15q23 0 44 15t21 48v59zM637 235v74h273v-74h-273z" />
    <glyph glyph-name="published" unicode="&#x2117;" horiz-adv-x="809" 
d="M595 410q0 -26 -10.5 -50.5t-29.5 -43t-45.5 -30t-59.5 -11.5h-93v-162h-79v436h166q31 0 58.5 -8.5t48 -25.5t32.5 -43t12 -62zM515 413q0 32 -19.5 48t-51.5 16h-87v-129h90q32 0 50 19.5t18 45.5zM406 -11q-75 0 -139.5 26.5t-111 73.5t-73 111.5t-26.5 140.5t27 141
t74 112t111 74t138 27q75 0 139 -26.5t111 -73.5t74 -112t27 -142q0 -76 -27 -140.5t-74 -111.5t-111 -73.5t-139 -26.5zM406 628q-59 0 -110 -22t-88.5 -60t-59 -91t-21.5 -114t21.5 -113t59 -90.5t88.5 -60t110 -21.5q60 0 111 21.5t88.5 60t58.5 90.5t21 113
q0 62 -21 114.5t-58.5 91t-88.5 60t-111 21.5z" />
    <glyph glyph-name="trademark" unicode="&#x2122;" horiz-adv-x="883" 
d="M233 279h-74v343h-122v71h317v-71h-121v-343zM742 533l-43 -79l-62 -115h-56l-61 107l-46 87h-3v-254h-74v415h69l87 -157l55 -108h3l56 109l83 156h69v-415h-74v254h-3z" />
    <glyph glyph-name="Ohm" unicode="&#x2126;" horiz-adv-x="642" 
d="M369 0v122q38 11 67 44t29 92v190q0 38 -12 65t-32 44.5t-46 25.5t-54 8q-29 0 -55 -8t-46 -25.5t-32 -44.5t-12 -65v-190q0 -30 8 -52.5t21.5 -39.5t31.5 -28t37 -17v-121h-226v101h82q-34 25 -51.5 65t-17.5 85v216q0 54 21 96.5t56.5 72t82.5 45t100 15.5t100 -15.5
t82.5 -45t56 -72t20.5 -96.5v-216q0 -45 -17.5 -85t-50.5 -65h83v-101h-226z" />
    <glyph glyph-name="angstrom" unicode="&#x212b;" horiz-adv-x="617" 
d="M437 149h-257l-49 -149h-121l241 689h116l241 -689h-124zM213 248h191l-41 129l-53 175h-4l-51 -168zM359 800q0 20 -14.5 34t-35.5 14t-36 -14t-15 -34q0 -21 15 -35.5t36 -14.5t35.5 14.5t14.5 35.5zM198 800q0 22 9 41.5t24 33.5t35 22.5t43 8.5t43 -8.5t35 -22.5
t23.5 -33.5t8.5 -41.5q0 -23 -8.5 -42.5t-23.5 -34t-35 -23t-43 -8.5t-43 8.5t-35 23t-24 34t-9 42.5z" />
    <glyph glyph-name="estimated" unicode="&#x212e;" horiz-adv-x="817" 
d="M197 310l1 -174q16 -25 39 -45t50.5 -34.5t58 -22.5t61.5 -8q64 0 120 29t95 78h74q-54 -66 -129.5 -105t-160.5 -39q-72 0 -136 27t-112 73t-75.5 107.5t-27.5 130.5t27.5 130t75.5 106t112 71t136 26q74 0 137 -26t109.5 -72.5t74 -111t30.5 -140.5h-560zM613 515
q-14 24 -37 44t-50.5 34t-58 21.5t-60.5 7.5q-54 0 -109.5 -30t-99.5 -81l-1 -166h416v170z" />
    <glyph glyph-name="onethird" unicode="&#x2153;" horiz-adv-x="826" 
d="M203 -17h-78l425 730h79zM156 275v313l-46 -35l-46 57l100 79h74v-414h-82zM619 417q27 0 52 -6.5t44.5 -20t31 -36t11.5 -53.5q0 -29 -15 -52.5t-46 -33.5q35 -13 49.5 -38t14.5 -51q0 -33 -12.5 -58t-33 -41t-47.5 -24t-56 -8q-41 0 -75.5 11.5t-60.5 31.5l42 62
q20 -15 44.5 -23t44.5 -8q31 0 51 13.5t20 39.5q0 25 -17.5 39.5t-41.5 14.5h-58v69h58q20 0 38.5 13.5t18.5 40.5q0 24 -20.5 34.5t-44.5 10.5q-20 0 -44.5 -7t-44.5 -23l-39 60q25 20 60 31.5t76 11.5z" />
    <glyph glyph-name="twothirds" unicode="&#x2154;" horiz-adv-x="826" 
d="M306 577q0 -22 -10 -42t-25.5 -37t-34 -32t-36.5 -27q-12 -8 -28 -18t-30 -22t-24 -25.5t-10 -28.5h198v-71h-284v60q0 29 10 51.5t26.5 41t37.5 34t42 29.5q12 8 27 17.5t27.5 20.5t21 23t8.5 25q0 22 -21 32.5t-45 10.5q-23 0 -45.5 -8.5t-42.5 -23.5l-43 59
q26 20 61.5 33.5t73.5 13.5q28 0 54.5 -6t46.5 -19.5t32.5 -35.5t12.5 -55zM661 417q27 0 52 -6.5t44.5 -20t31 -36t11.5 -53.5q0 -29 -15 -52.5t-46 -33.5q35 -13 49.5 -38t14.5 -51q0 -33 -12.5 -58t-33 -41t-47.5 -24t-56 -8q-41 0 -75.5 11.5t-60.5 31.5l42 62
q20 -15 44.5 -23t44.5 -8q31 0 51 13.5t20 39.5q0 25 -17.5 39.5t-41.5 14.5h-58v69h58q20 0 38.5 13.5t18.5 40.5q0 24 -20.5 34.5t-44.5 10.5q-20 0 -44.5 -7t-44.5 -23l-39 60q25 20 60 31.5t76 11.5zM247 -17h-78l425 730h79z" />
    <glyph glyph-name="onefifth" unicode="&#x2155;" horiz-adv-x="826" 
d="M196 -17h-78l425 730h79zM155 275v313l-46 -35l-46 57l100 79h74v-414h-82zM762 111q0 -27 -12 -48.5t-32.5 -36t-47 -22.5t-55.5 -8q-42 0 -76 13.5t-60 34.5l46 60q44 -34 88 -34q9 0 20.5 2.5t21.5 8t17 15t7 24.5v48q0 21 -12 31t-29 10q-9 0 -20.5 -3t-22.5 -8
t-21 -10.5t-17 -9.5l-69 28l-1 208h261v-72h-178v-80q20 11 39.5 17.5t34.5 6.5q57 0 87.5 -31t30.5 -81v-63z" />
    <glyph glyph-name="twofifths" unicode="&#x2156;" horiz-adv-x="826" 
d="M809 111q0 -27 -12 -48.5t-32.5 -36t-47 -22.5t-55.5 -8q-42 0 -76 13.5t-60 34.5l46 60q44 -34 88 -34q9 0 20.5 2.5t21.5 8t17 15t7 24.5v48q0 21 -12 31t-29 10q-9 0 -20.5 -3t-22.5 -8t-21 -10.5t-17 -9.5l-69 28l-1 208h261v-72h-178v-80q20 11 39.5 17.5t34.5 6.5
q57 0 87.5 -31t30.5 -81v-63zM300 577q0 -22 -10 -42t-25.5 -37t-34 -32t-36.5 -27q-12 -8 -28 -18t-30 -22t-24 -25.5t-10 -28.5h198v-71h-284v60q0 29 10 51.5t26.5 41t37.5 34t42 29.5q12 8 27 17.5t27.5 20.5t21 23t8.5 25q0 22 -21 32.5t-45 10.5q-23 0 -45.5 -8.5
t-42.5 -23.5l-43 59q26 20 61.5 33.5t73.5 13.5q28 0 54.5 -6t46.5 -19.5t32.5 -35.5t12.5 -55zM243 -17h-78l425 730h79z" />
    <glyph glyph-name="threefifths" unicode="&#x2157;" horiz-adv-x="826" 
d="M236 -17h-78l425 730h79zM163 692q27 0 52.5 -6.5t45.5 -20t32 -36t12 -53.5q0 -29 -15.5 -52.5t-46.5 -33.5q35 -13 49.5 -38t14.5 -51q0 -33 -12.5 -58t-33 -41t-47.5 -24t-56 -8q-41 0 -75.5 11.5t-60.5 31.5l42 62q20 -15 44.5 -23t44.5 -8q31 0 51 13.5t20 39.5
q0 25 -17.5 39.5t-41.5 14.5h-58v69h58q20 0 39 13.5t19 40.5q0 12 -6 20.5t-16 14t-21.5 8t-23.5 2.5q-21 0 -45.5 -7t-44.5 -23l-39 60q26 20 61 31.5t75 11.5zM804 111q0 -27 -12 -48.5t-32.5 -36t-47 -22.5t-55.5 -8q-42 0 -76 13.5t-60 34.5l46 60q44 -34 88 -34
q9 0 20.5 2.5t21.5 8t17 15t7 24.5v48q0 21 -12 31t-29 10q-9 0 -20.5 -3t-22.5 -8t-21 -10.5t-17 -9.5l-69 28l-1 208h261v-72h-178v-80q20 11 39.5 17.5t34.5 6.5q57 0 87.5 -31t30.5 -81v-63z" />
    <glyph glyph-name="fourfifths" unicode="&#x2158;" horiz-adv-x="826" 
d="M246 -17h-78l425 730h79zM282 334v-59h-79v59h-189v61l147 293h87l-141 -284h96v113h79v-113h41v-70h-41zM811 111q0 -27 -12 -48.5t-32.5 -36t-47 -22.5t-55.5 -8q-42 0 -76 13.5t-60 34.5l46 60q44 -34 88 -34q9 0 20.5 2.5t21.5 8t17 15t7 24.5v48q0 21 -12 31t-29 10
q-9 0 -20.5 -3t-22.5 -8t-21 -10.5t-17 -9.5l-69 28l-1 208h261v-72h-178v-80q20 11 39.5 17.5t34.5 6.5q57 0 87.5 -31t30.5 -81v-63z" />
    <glyph glyph-name="onesixth" unicode="&#x2159;" horiz-adv-x="826" 
d="M213 -17h-78l425 730h79zM142 275v313l-46 -35l-46 57l100 79h74v-414h-82zM776 112q0 -28 -12 -49.5t-32 -36.5t-45.5 -22.5t-52.5 -7.5t-52.5 7.5t-45.5 22.5t-32 36.5t-12 49.5v190q0 28 12 49.5t32 36.5t46 22.5t55 7.5q43 0 76 -13.5t60 -34.5l-47 -60
q-23 18 -43.5 25.5t-43.5 7.5q-9 0 -20 -2.5t-20.5 -8.5t-16 -16t-6.5 -24v-47q26 14 47 20.5t38 6.5q56 0 85.5 -31.5t29.5 -79.5v-49zM693 155q0 23 -12.5 33t-29.5 10t-36 -7.5t-39 -18.5v-50q0 -14 5.5 -24t14 -16t18.5 -9t20 -3q20 0 39.5 12.5t19.5 39.5v33z" />
    <glyph glyph-name="fivesixths" unicode="&#x215a;" horiz-adv-x="826" 
d="M233 -17h-78l425 730h79zM309 386q0 -27 -12 -48.5t-32.5 -36t-47 -22.5t-55.5 -8q-42 0 -76 13.5t-60 34.5l46 60q44 -34 88 -34q9 0 20.5 2.5t21.5 8t17 15t7 24.5v48q0 21 -12 31t-29 10q-9 0 -20.5 -3t-22.5 -8t-21 -10.5t-17 -9.5l-69 28l-1 208h261v-72h-178v-80
q20 11 39.5 17.5t34.5 6.5q57 0 87.5 -31t30.5 -81v-63zM799 112q0 -28 -12 -49.5t-32 -36.5t-45.5 -22.5t-52.5 -7.5t-52.5 7.5t-45.5 22.5t-32 36.5t-12 49.5v190q0 28 12 49.5t32 36.5t46 22.5t55 7.5q43 0 76 -13.5t60 -34.5l-47 -60q-23 18 -43.5 25.5t-43.5 7.5
q-9 0 -20 -2.5t-20.5 -8.5t-16 -16t-6.5 -24v-47q26 14 47 20.5t38 6.5q56 0 85.5 -31.5t29.5 -79.5v-49zM716 155q0 23 -12.5 33t-29.5 10t-36 -7.5t-39 -18.5v-50q0 -14 5.5 -24t14 -16t18.5 -9t20 -3q20 0 39.5 12.5t19.5 39.5v33z" />
    <glyph glyph-name="oneeighth" unicode="&#x215b;" horiz-adv-x="826" 
d="M202 -17h-78l425 730h79zM151 275v313l-46 -35l-46 57l100 79h74v-414h-82zM622 417q26 0 51 -7.5t45 -23t32 -38.5t12 -53q0 -26 -14.5 -49.5t-38.5 -34.5q28 -11 42.5 -36t14.5 -52q0 -32 -12.5 -56t-33 -39.5t-46 -23.5t-51.5 -8t-52 7.5t-46 23.5t-32.5 39t-12.5 55
q0 29 15 52t42 37q-25 11 -38.5 34t-13.5 51q0 30 12 53t31 38.5t43.5 23t50.5 7.5zM679 294q0 24 -18 36t-38 12q-22 0 -39.5 -12t-17.5 -36t17 -37t40 -13q22 0 39 13.5t17 36.5zM565 121q0 -25 17 -38t41 -13t41 13t17 38q0 23 -17 36.5t-41 13.5t-41 -13t-17 -37z" />
    <glyph glyph-name="threeeighths" unicode="&#x215c;" horiz-adv-x="826" 
d="M237 -17h-78l425 730h79zM165 692q27 0 52.5 -6.5t45.5 -20t32 -36t12 -53.5q0 -29 -15.5 -52.5t-46.5 -33.5q35 -13 49.5 -38t14.5 -51q0 -33 -12.5 -58t-33 -41t-47.5 -24t-56 -8q-41 0 -75.5 11.5t-60.5 31.5l42 62q20 -15 44.5 -23t44.5 -8q31 0 51 13.5t20 39.5
q0 25 -17.5 39.5t-41.5 14.5h-58v69h58q20 0 39 13.5t19 40.5q0 12 -6 20.5t-16 14t-21.5 8t-23.5 2.5q-21 0 -45.5 -7t-44.5 -23l-39 60q26 20 61 31.5t75 11.5zM658 417q26 0 51 -7.5t45 -23t32 -38.5t12 -53q0 -26 -14.5 -49.5t-38.5 -34.5q28 -11 42.5 -36t14.5 -52
q0 -32 -12.5 -56t-33 -39.5t-46 -23.5t-51.5 -8t-52 7.5t-46 23.5t-32.5 39t-12.5 55q0 29 15 52t42 37q-25 11 -38.5 34t-13.5 51q0 30 12 53t31 38.5t43.5 23t50.5 7.5zM715 294q0 24 -18 36t-38 12q-22 0 -39.5 -12t-17.5 -36t17 -37t40 -13q22 0 39 13.5t17 36.5z
M601 121q0 -25 17 -38t41 -13t41 13t17 38q0 23 -17 36.5t-41 13.5t-41 -13t-17 -37z" />
    <glyph glyph-name="fiveeighths" unicode="&#x215d;" horiz-adv-x="826" 
d="M238 -17h-78l425 730h79zM310 386q0 -27 -12 -48.5t-32.5 -36t-47 -22.5t-55.5 -8q-42 0 -76 13.5t-60 34.5l46 60q44 -34 88 -34q9 0 20.5 2.5t21.5 8t17 15t7 24.5v48q0 21 -12 31t-29 10q-9 0 -20.5 -3t-22.5 -8t-21 -10.5t-17 -9.5l-69 28l-1 208h261v-72h-178v-80
q20 11 39.5 17.5t34.5 6.5q57 0 87.5 -31t30.5 -81v-63zM654 417q26 0 51 -7.5t45 -23t32 -38.5t12 -53q0 -26 -14.5 -49.5t-38.5 -34.5q28 -11 42.5 -36t14.5 -52q0 -32 -12.5 -56t-33 -39.5t-46 -23.5t-51.5 -8t-52 7.5t-46 23.5t-32.5 39t-12.5 55q0 29 15 52t42 37
q-25 11 -38.5 34t-13.5 51q0 30 12 53t31 38.5t43.5 23t50.5 7.5zM711 294q0 24 -18 36t-38 12q-22 0 -39.5 -12t-17.5 -36t17 -37t40 -13q22 0 39 13.5t17 36.5zM597 121q0 -25 17 -38t41 -13t41 13t17 38q0 23 -17 36.5t-41 13.5t-41 -13t-17 -37z" />
    <glyph glyph-name="seveneighths" unicode="&#x215e;" horiz-adv-x="826" 
d="M624 417q26 0 51 -7.5t45 -23t32 -38.5t12 -53q0 -26 -14.5 -49.5t-38.5 -34.5q28 -11 42.5 -36t14.5 -52q0 -32 -12.5 -56t-33 -39.5t-46 -23.5t-51.5 -8t-52 7.5t-46 23.5t-32.5 39t-12.5 55q0 29 15 52t42 37q-25 11 -38.5 34t-13.5 51q0 30 12 53t31 38.5t43.5 23
t50.5 7.5zM206 -17h-78l425 730h79zM339 626q-40 -88 -80 -175.5t-80 -176.5h-90l154 343h-107v-59h-79v130h282v-62zM567 121q0 -25 17 -38t41 -13t41 13t17 38q0 23 -17 36.5t-41 13.5t-41 -13t-17 -37zM681 294q0 24 -18 36t-38 12q-22 0 -39.5 -12t-17.5 -36t17 -37
t40 -13q22 0 39 13.5t17 36.5z" />
    <glyph glyph-name="uni215F" unicode="&#x215f;" horiz-adv-x="475" 
d="M221 -17h-78l425 730h79zM156 275v313l-46 -35l-46 57l100 79h74v-414h-82z" />
    <glyph glyph-name="arrowleft" unicode="&#x2190;" horiz-adv-x="835" 
d="M774 362v-81l-555 1l133 -131l-58 -58l-228 229l228 230l58 -58l-133 -132h555z" />
    <glyph glyph-name="arrowup" unicode="&#x2191;" horiz-adv-x="501" 
d="M294 1h-81v544l-130 -130l-58 58l229 228l230 -228l-58 -58l-132 130v-544z" />
    <glyph glyph-name="arrowright" unicode="&#x2192;" horiz-adv-x="835" 
d="M622 362l-133 132l58 58l228 -230l-228 -229l-58 58l133 131l-555 -1v81h555z" />
    <glyph glyph-name="arrowdown" unicode="&#x2193;" horiz-adv-x="501" 
d="M294 154l132 133l58 -58l-230 -228l-229 228l58 58l131 -133l-1 547h81v-547z" />
    <glyph glyph-name="arrowupleft" unicode="&#x2196;" horiz-adv-x="840" 
d="M770 55l-56 -58l-511 510l1 -186h-82l1 322l323 1l1 -81l-187 1z" />
    <glyph glyph-name="arrowdownright" unicode="&#x2198;" horiz-adv-x="840" 
d="M122 587l56 57l511 -510l-1 187h82l-1 -323l-323 -1l-1 81h187z" />
    <glyph glyph-name="arrowhookleft" unicode="&#x21a9;" horiz-adv-x="853" 
d="M182 362h464q49 0 68.5 27.5t19.5 68.5v78q0 39 -21 60.5t-67 21.5h-88v79h92q45 0 76.5 -12.5t51 -34.5t28 -52.5t8.5 -65.5v-74q0 -80 -43 -128.5t-133 -48.5l-456 1l133 -132l-58 -56l-227 228l227 229l58 -57z" />
    <glyph glyph-name="arrowhookright" unicode="&#x21aa;" horiz-adv-x="845" 
d="M530 494l58 57l227 -229l-227 -228l-58 56l134 132l-456 -1q-90 0 -133.5 48.5t-43.5 128.5v74q0 35 8.5 65.5t28 52.5t51 34.5t76.5 12.5h93v-79h-88q-47 0 -67.5 -21.5t-20.5 -60.5v-78q0 -41 19.5 -68.5t68.5 -27.5h464z" />
    <glyph glyph-name="carriagereturnright" unicode="&#x21b3;" horiz-adv-x="847" 
d="M182 362h483l-133 132l57 57l227 -229l-227 -228l-57 56l133 132h-565v410h82v-330z" />
    <glyph glyph-name="carriagereturn" unicode="&#x21b5;" horiz-adv-x="847" 
d="M715 692h81v-410h-564l133 -132l-58 -56l-227 228l227 229l58 -57l-133 -132h483v330z" />
    <glyph glyph-name="pageup" unicode="&#x21de;" horiz-adv-x="497" 
d="M102 371h106l1 175l-128 -123l-57 59l224 219l228 -219l-57 -59l-130 123l1 -175h105v-78h-105v-65h105v-77h-105v-151h-82v151h-106v77h106v65h-106v78z" />
    <glyph glyph-name="pagedown" unicode="&#x21df;" horiz-adv-x="497" 
d="M102 407h106v66h-106v76h106v152h82v-152h105v-76h-105v-66h105v-77h-105l-1 -177l130 124l57 -58l-228 -219l-224 219l57 58l128 -124l-1 177h-106v77z" />
    <glyph glyph-name="arrowdashleft" unicode="&#x21e0;" horiz-adv-x="838" 
d="M333 361v-80h-125l135 -131l-59 -58q-57 58 -113.5 115t-113.5 114q114 114 227 230l59 -58q-34 -32 -67.5 -65.5t-67.5 -66.5h125zM529 361h90v-80h-90v80zM673 361h90v-80h-90v80zM386 361h89v-80h-89v80z" />
    <glyph glyph-name="arrowdashup" unicode="&#x21e1;" horiz-adv-x="503" 
d="M293 421h-81l1 123l-132 -133l-57 58l228 228l230 -228l-57 -58l-132 133v-123zM293 368v-89h-81v89h81zM293 225v-90h-81v90h81zM293 81v-90h-81v90h81z" />
    <glyph glyph-name="arrowdashright" unicode="&#x21e2;" horiz-adv-x="838" 
d="M613 362l-135 132l58 57l228 -230l-228 -228l-58 57l135 132l-125 -1v81h125zM435 281h-89v81h89v-81zM292 281h-90v81h90v-81zM148 281h-90v81h90v-81z" />
    <glyph glyph-name="arrowdashdown" unicode="&#x21e3;" horiz-adv-x="503" 
d="M292 143l132 133q14 -14 28.5 -29t29.5 -29l-230 -226q-58 56 -115 112.5t-114 113.5q14 14 28.5 29t29.5 29l131 -133v124h80v-124zM212 319v90h80v-90h-80zM212 607v90h80v-90h-80zM212 463v89h80v-89h-80z" />
    <glyph glyph-name="arrowtableft" unicode="&#x21e4;" horiz-adv-x="855" 
d="M71 104v435h85v-435h-85zM822 362v-81l-462 1l133 -131l-58 -58l-228 229l228 230l58 -58l-133 -132h462z" />
    <glyph glyph-name="arrowtabright" unicode="&#x21e5;" horiz-adv-x="855" 
d="M738 104v435h85v-435h-85zM534 362l-133 132l58 58l228 -230l-228 -229l-58 58l133 131l-462 -1v81h462z" />
    <glyph glyph-name="shift" unicode="&#x21e7;" horiz-adv-x="840" 
d="M424 607l-227 -235h105v-307h245v307h104zM46 312l378 388l378 -388h-190v-312h-376v312h-190z" />
    <glyph glyph-name="capslock" unicode="&#x21ea;" horiz-adv-x="840" 
d="M293 -49v-74h246v74h-246zM228 13h375v-198h-375v198zM416 607l-227 -235h104v-205h246v205h104zM38 312l378 388l378 -388h-190v-211h-376v211h-190z" />
    <glyph glyph-name="partialdiff" unicode="&#x2202;" horiz-adv-x="530" 
d="M252 76q36 0 60.5 20t40.5 51.5t24 70.5t10 77q-36 40 -72 56.5t-64 16.5q-26 0 -47 -13t-35.5 -33.5t-22.5 -46.5t-8 -53q0 -39 9.5 -66.5t25 -45t36 -26t43.5 -8.5zM249 -10q-45 0 -84 15t-67.5 44t-45 72t-16.5 99q0 53 16 95.5t44.5 72t66.5 45.5t82 16
q35 0 68.5 -11.5t71.5 -39.5q-3 50 -16.5 94t-36.5 77t-55.5 52t-73.5 19q-16 0 -34.5 -1.5t-42.5 -9.5l-1 81q47 11 86 11q77 0 130.5 -30t87 -81t48.5 -118t15 -141q0 -90 -18 -157.5t-50.5 -112.5t-77 -68t-97.5 -23z" />
    <glyph glyph-name="gradient" unicode="&#x2207;" horiz-adv-x="613" 
d="M311 164l64 201l74 222h-282l72 -217l66 -206h6zM363 1h-110l-243 689h595z" />
    <glyph glyph-name="product" unicode="&#x220f;" horiz-adv-x="626" 
d="M459 -101v687h-289v-687h-114v790h519v-790h-116z" />
    <glyph glyph-name="summation" unicode="&#x2211;" horiz-adv-x="510" 
d="M30 -101v98l157 306l-156 291v95h440v-103h-303l152 -283l-158 -303h318v-101h-450z" />
    <glyph glyph-name="minus" unicode="&#x2212;" horiz-adv-x="517" 
d="M490 336v-81h-464v81h464z" />
    <glyph glyph-name="radical" unicode="&#x221a;" horiz-adv-x="579" 
d="M351 -80h-84l-154 402l-69 -22l-26 71l156 50l128 -340l162 714h97z" />
    <glyph glyph-name="infinity" unicode="&#x221e;" horiz-adv-x="739" 
d="M205 433q25 0 49.5 -9t46.5 -24t40 -33t31 -36q17 22 35.5 41t39.5 32.5t45.5 21t53.5 7.5q33 0 61.5 -12t49.5 -33t32.5 -50t11.5 -64q0 -32 -12.5 -61t-34.5 -51t-52 -35t-64 -13q-26 0 -49 9t-44 23.5t-39 32.5t-34 37q-17 -20 -35.5 -38.5t-39.5 -32.5t-45.5 -22.5
t-54.5 -8.5q-33 0 -61 12t-49 33t-33 50.5t-12 64.5q0 32 13 61t35 50.5t51.5 34.5t63.5 13zM205 355q-16 0 -30.5 -6.5t-26 -17.5t-18.5 -26t-7 -31q0 -35 24 -59t56 -24q35 0 65.5 24.5t51.5 57.5q-9 14 -21.5 28.5t-27.5 26.5t-31.5 19.5t-34.5 7.5zM542 355
q-35 0 -64 -23t-56 -58q13 -16 27 -31t28 -26.5t29.5 -18.5t33.5 -7q15 0 29.5 7t25.5 18t17.5 26t6.5 32q0 35 -23 58t-54 23z" />
    <glyph glyph-name="logicaland" unicode="&#x2227;" horiz-adv-x="543" 
d="M234 527h79l200 -527h-102l-137 372l-141 -372h-101z" />
    </font>
</defs>
</svg>
